<?xml version="1.0" standalone="no"?>
<!DOCTYPE svg PUBLIC "-//W3C//DTD SVG 1.1//EN" "http://www.w3.org/Graphics/SVG/1.1/DTD/svg11.dtd" >
<svg xmlns="http://www.w3.org/2000/svg" xmlns:xlink="http://www.w3.org/1999/xlink" version="1.1">
<metadata>
Created by FontForge 20170812 at Fri Jun 17 05:59:31 2022
 By www-data
</metadata>
<defs>
<font id="TheVintageRegular" horiz-adv-x="0" >
  <font-face 
    font-family="The Vintage"
    font-weight="400"
    font-stretch="normal"
    units-per-em="1000"
    panose-1="0 0 0 0 0 0 0 0 0 0"
    ascent="800"
    descent="-200"
    x-height="384.258"
    cap-height="997.631"
    bbox="-265.86 -571.055 1515.47 1216.47"
    underline-thickness="50"
    underline-position="-100"
    unicode-range="U+000A-20AC"
  />
<missing-glyph horiz-adv-x="527" 
d="M50 700h427v-700h-427v700zM78 680l185 -309l186 309h-371zM251 350l-180 300v-601zM264 329l-185 -308h370zM276 350l181 -303v605z" />
    <glyph glyph-name=".notdef" horiz-adv-x="527" 
d="M50 700h427v-700h-427v700zM78 680l185 -309l186 309h-371zM251 350l-180 300v-601zM264 329l-185 -308h370zM276 350l181 -303v605z" />
    <glyph glyph-name=".null" 
 />
    <glyph glyph-name=".null" 
 />
    <glyph glyph-name="LF" unicode="&#xa;" 
 />
    <glyph glyph-name="controlCR" unicode="&#xd;" 
 />
    <glyph glyph-name="space" unicode=" " horiz-adv-x="282" 
 />
    <glyph glyph-name="exclam" unicode="!" horiz-adv-x="503" 
d="M435.739 830.599c12.4424 -3.71387 19.5264 -16.7979 15.8281 -29.248c-14.4014 -48.3584 -34.1855 -93.8809 -53.3193 -137.906l-4.40332 -10.1387c-84.7373 -195.338 -162.697 -398.276 -231.709 -603.158c-3.31445 -9.80957 -12.4658 -16.0068 -22.2754 -16.0068
c-2.49121 0 -5.02246 0.399414 -7.50586 1.2373c-12.3086 4.15234 -18.9219 17.4795 -14.7773 29.7803c69.4355 206.135 147.873 410.319 233.135 606.864l4.41895 10.1699c18.5693 42.7412 37.7812 86.9395 51.375 132.579
c3.70605 12.4502 16.8066 19.5254 29.2334 15.8271zM126.291 -33.0928c11.8076 -5.38281 17.0166 -19.3271 11.6416 -31.1348c-15.9287 -34.9609 -30.0713 -71.6221 -42.0352 -108.965c-3.18848 -9.98242 -12.4258 -16.3447 -22.376 -16.3447
c-2.38184 0 -4.79492 0.360352 -7.17676 1.12793c-12.3643 3.95703 -19.1729 17.1904 -15.2158 29.5547c12.5205 39.0977 27.3369 77.4902 44.0254 114.119c5.38281 11.8076 19.3213 17.0254 31.1367 11.6426z" />
    <glyph glyph-name="quotedbl" unicode="&#x22;" horiz-adv-x="339" 
d="M181.109 778.667c11.2588 -6.46387 15.1533 -20.8262 8.69727 -32.0771c-30.0635 -52.417 -62.7754 -103.283 -97.2188 -151.188c-4.5918 -6.38574 -11.792 -9.78613 -19.1025 -9.78613c-4.74805 0 -9.55078 1.43359 -13.7031 4.41895
c-10.5381 7.57617 -12.9355 22.2676 -5.35938 32.8057c33.5029 46.5957 65.3369 96.0986 94.6016 147.129c6.46387 11.2588 20.8184 15.1455 32.085 8.69727zM277.771 727.433c10.9609 -6.9502 14.2217 -21.4775 7.27148 -32.4385
c-24.6104 -38.8389 -51.1797 -76.416 -78.9629 -111.705c-4.63867 -5.88379 -11.5254 -8.96289 -18.4834 -8.96289c-5.08496 0 -10.2168 1.64551 -14.5264 5.03809c-10.2012 8.03125 -11.9561 22.8086 -3.9248 33.0098c26.7881 34.0361 52.4248 70.2969 76.1885 107.788
c6.9502 10.9688 21.4844 14.2285 32.4375 7.27051z" />
    <glyph glyph-name="quotedbl" unicode="&#x201d;" horiz-adv-x="339" 
d="M181.109 778.667c11.2588 -6.46387 15.1533 -20.8262 8.69727 -32.0771c-30.0635 -52.417 -62.7754 -103.283 -97.2188 -151.188c-4.5918 -6.38574 -11.792 -9.78613 -19.1025 -9.78613c-4.74805 0 -9.55078 1.43359 -13.7031 4.41895
c-10.5381 7.57617 -12.9355 22.2676 -5.35938 32.8057c33.5029 46.5957 65.3369 96.0986 94.6016 147.129c6.46387 11.2588 20.8184 15.1455 32.085 8.69727zM277.771 727.433c10.9609 -6.9502 14.2217 -21.4775 7.27148 -32.4385
c-24.6104 -38.8389 -51.1797 -76.416 -78.9629 -111.705c-4.63867 -5.88379 -11.5254 -8.96289 -18.4834 -8.96289c-5.08496 0 -10.2168 1.64551 -14.5264 5.03809c-10.2012 8.03125 -11.9561 22.8086 -3.9248 33.0098c26.7881 34.0361 52.4248 70.2969 76.1885 107.788
c6.9502 10.9688 21.4844 14.2285 32.4375 7.27051z" />
    <glyph glyph-name="quotedbl" unicode="&#x201c;" horiz-adv-x="339" 
d="M181.109 778.667c11.2588 -6.46387 15.1533 -20.8262 8.69727 -32.0771c-30.0635 -52.417 -62.7754 -103.283 -97.2188 -151.188c-4.5918 -6.38574 -11.792 -9.78613 -19.1025 -9.78613c-4.74805 0 -9.55078 1.43359 -13.7031 4.41895
c-10.5381 7.57617 -12.9355 22.2676 -5.35938 32.8057c33.5029 46.5957 65.3369 96.0986 94.6016 147.129c6.46387 11.2588 20.8184 15.1455 32.085 8.69727zM277.771 727.433c10.9609 -6.9502 14.2217 -21.4775 7.27148 -32.4385
c-24.6104 -38.8389 -51.1797 -76.416 -78.9629 -111.705c-4.63867 -5.88379 -11.5254 -8.96289 -18.4834 -8.96289c-5.08496 0 -10.2168 1.64551 -14.5264 5.03809c-10.2012 8.03125 -11.9561 22.8086 -3.9248 33.0098c26.7881 34.0361 52.4248 70.2969 76.1885 107.788
c6.9502 10.9688 21.4844 14.2285 32.4375 7.27051z" />
    <glyph glyph-name="numbersign" unicode="#" horiz-adv-x="734" 
d="M669.405 812.264c12.0273 -4.88086 17.8242 -18.584 12.959 -30.6113c-53.7178 -132.438 -106.386 -266.403 -157.878 -401.254c27.7285 -0.862305 55.4648 -2.60156 83.1855 -5.28125c12.9199 -1.24609 22.3848 -12.7402 21.1309 -25.6602
c-1.24609 -12.9199 -12.7559 -22.4316 -25.6602 -21.1309c-32.1006 3.11035 -64.2246 4.86523 -96.3408 5.4375c-8.75195 -23.0742 -17.543 -46.125 -26.2168 -69.2461c21.0527 -1.62207 42.082 -4.06641 63.0488 -7.41211
c12.8184 -2.05273 21.5547 -14.1035 19.502 -26.9219c-2.04492 -12.8184 -14.1035 -21.5469 -26.9219 -19.502c-24.1797 3.8623 -48.4531 6.36133 -72.7578 7.77148c-57.5566 -154.493 -113.508 -309.825 -167.335 -465.22
c-3.36914 -9.71582 -12.4736 -15.8193 -22.2129 -15.8193c-2.55469 0 -5.14844 0.422852 -7.69531 1.30078c-12.2617 4.25488 -18.7646 17.6377 -14.5176 29.9072c52.1826 150.646 106.37 301.23 162.062 451.062c-45.7969 -0.461914 -91.5225 -5.13184 -136.739 -14.1191
c-53.1221 -146.463 -104.082 -294.054 -152.315 -442.138c-3.23633 -9.92676 -12.4424 -16.2344 -22.3457 -16.2344c-2.41309 0 -4.86523 0.368164 -7.28613 1.15918c-12.3408 4.01953 -19.0869 17.2842 -15.0674 29.6328c45.209 138.792 92.792 277.153 142.295 414.566
c-47.0654 -13.0537 -93.3555 -30.7529 -138.353 -53.0283c-3.35352 -1.66113 -6.91113 -2.44434 -10.4131 -2.44434c-8.6582 0 -16.9873 4.79492 -21.085 13.0771c-5.7666 11.6348 -1.00293 25.7383 10.6318 31.4971c57.8154 28.6299 117.676 50.0986 178.578 64.3428
c8.3291 22.8398 16.7051 45.6396 25.1436 68.4082c-35.5244 -6.41699 -70.9082 -14.3623 -106.08 -23.9131c-2.06055 -0.564453 -4.13672 -0.831055 -6.17383 -0.831055c-10.3506 0 -19.8311 6.88672 -22.667 17.3545c-3.40039 12.5283 3.99609 25.4404 16.5244 28.8408
c45.4912 12.3564 91.335 22.1348 137.382 29.4297c51.8369 138.228 105.531 275.218 161.082 410.139c4.94434 12.0039 18.6953 17.7236 30.6836 12.7871c12.0039 -4.94434 17.7314 -18.6797 12.7871 -30.6836c-52.1816 -126.749 -102.766 -255.309 -151.673 -385.02
c45.1152 5.22559 90.3945 8.03027 135.729 8.41406c53.5693 140.641 108.399 280.357 164.397 418.397c4.87305 12.0273 18.5928 17.8174 30.6123 12.9443zM431.2 266.641c8.37598 22.3613 16.8145 44.6748 25.2529 66.9971
c-45.5615 -1.06543 -91.0449 -4.66992 -136.34 -10.8203c-8.21875 -22.0557 -16.4844 -44.0723 -24.6016 -66.1904c44.958 7.29492 90.3076 10.6094 135.688 10.0137z" />
    <glyph glyph-name="dollar" unicode="$" horiz-adv-x="517" 
d="M456.546 581.754c12.0117 -25.9346 11.2539 -55.6016 8.49609 -75.9492c-7.56836 -55.9043 -36.0723 -103.809 -58.9746 -142.311c-6.63672 -11.1572 -21.0615 -14.8086 -32.2188 -8.17969c-11.1494 6.63672 -14.8164 21.0615 -8.17969 32.2188
c21.7979 36.6445 46.5098 78.1787 52.7939 124.578c2.74219 20.2383 1.15137 37.4834 -4.57617 49.8633c-3.09473 6.69141 -7.50586 11.9336 -12.2773 16.1016c-52.4951 -105.344 -100.799 -213.86 -144.73 -325.127c16.7285 -44.1982 34.624 -95.8789 37.4287 -151.751
c3.2207 -64.0215 -15.6699 -122.189 -50.5205 -155.591c-21.1318 -20.2461 -47.5596 -31.0195 -74.293 -31.0195c-9.62109 0 -19.2666 1.39453 -28.7314 4.24609c-0.0546875 0.015625 -0.109375 0.0390625 -0.164062 0.0546875
c-11.8076 -38.9951 -23.1211 -78.2412 -33.9023 -117.73c-2.85156 -10.4443 -12.3242 -17.3154 -22.6592 -17.3154c-2.04492 0 -4.12891 0.274414 -6.20508 0.838867c-12.5283 3.42383 -19.9092 16.3438 -16.4854 28.8721c11.8545 43.4229 24.3906 86.5322 37.4834 129.352
c-15.7256 14.1113 -28.5908 32.8213 -36.9199 54.4854c-18.3652 47.7627 -15.4814 107.529 8.55664 177.631c17.1748 50.082 36.998 84.0557 62.3916 106.927c9.64551 8.68945 24.5088 7.91406 33.1982 -1.73926c8.68945 -9.64551 7.90625 -24.5088 -1.73926 -33.1982
c-19.2119 -17.2998 -34.9053 -45.0205 -49.377 -87.2363c-20.0732 -58.5439 -23.2305 -108.861 -9.14258 -145.522c2.5625 -6.66016 5.79883 -12.873 9.49707 -18.585c27.8535 87.2363 58.3242 173.086 91.2158 257.439
c-0.391602 1.01074 -0.775391 2.0293 -1.16699 3.04785c-15.5996 40.5625 -31.7324 82.5039 -40.0615 128.011c-6.62109 36.1514 -13.0459 105.484 18.1846 163.723c27.1562 50.6387 72.7256 74.1914 106.174 85.0352c31.96 10.3662 62.6738 12.3721 90.2383 6.26074
c12.3252 24.0537 24.791 48.0059 37.5469 71.7148c6.15039 11.4316 20.4102 15.7256 31.834 9.55957c11.4316 -6.15039 15.71 -20.4023 9.55957 -31.834c-12.0898 -22.4551 -23.8975 -45.1221 -35.5879 -67.8906c14.6592 -10.1309 26.0518 -23.2939 33.3145 -38.9795z
M211.253 -20.4434c24.7744 23.7402 38.6035 69.458 36.0967 119.298c-1.49609 29.6797 -8.16406 58.7559 -16.5869 86.1631c-27.2666 -72.6787 -52.707 -146.446 -76.2363 -221.217c19.2822 -5.69629 40.4531 0.171875 56.7266 15.7559zM232.377 317.965
c38.6582 94.5625 80.4502 187.104 125.314 277.342c-16.2891 1.52051 -34.1924 -0.830078 -53.5605 -7.10645c-25.2373 -8.17969 -59.4766 -25.6758 -79.2451 -62.5322c-17.8721 -33.3154 -22.7451 -81.8076 -13.3662 -133.034
c4.69336 -25.6602 12.1523 -50.1211 20.8574 -74.6689z" />
    <glyph glyph-name="percent" unicode="%" horiz-adv-x="845" 
d="M788.859 793.264c9.03418 -9.32422 8.79102 -24.2002 -0.525391 -33.2422c-274.16 -265.486 -507.608 -586.195 -693.857 -953.218c-4.14453 -8.16406 -12.4102 -12.873 -20.9814 -12.873c-3.58105 0 -7.20898 0.814453 -10.6172 2.5459
c-11.5801 5.87598 -16.2031 20.0186 -10.3271 31.5986c188.615 371.684 425.158 696.6 703.071 965.722c9.32422 9.03418 24.2031 8.79102 33.2373 -0.533203zM582.098 386.63c35.3447 3.76855 66.8174 -7.18457 88.6855 -30.8623
c40.6641 -44.0889 35.1484 -117.246 30.8936 -146.651c-14.3457 -99.0283 -68.7607 -192.07 -145.553 -248.875c-15.2158 -11.2588 -35.7676 -24.5547 -59.7588 -27.4541c-3.05566 -0.368164 -6.08789 -0.548828 -9.09668 -0.548828
c-24.6729 -0.0078125 -47.3633 12.1758 -60.6826 33.0957c-12.043 18.9141 -16.6426 44.7549 -13.665 76.8086c4.58398 49.2988 23.373 99.6318 54.3379 145.562c27.5957 40.9229 61.0596 73.752 92.9717 103.862c9.44141 8.91602 24.3203 8.48535 33.2285 -0.963867
c8.9082 -9.44141 8.47754 -24.3203 -0.963867 -33.2285c-29.9932 -28.3086 -61.3574 -59.0303 -86.2656 -95.9648c-26.5693 -39.4033 -42.6475 -82.1602 -46.502 -123.624c-1.95898 -21.1162 0.290039 -37.4365 6.51074 -47.207
c7.70996 -12.1211 20.6768 -11.5957 24.4844 -11.126c13.0537 1.58301 26.8672 10.7578 37.4365 18.5771c66.9277 49.5107 114.401 130.934 126.984 217.817c6.85547 47.3633 -0.211914 87.7539 -18.9219 108.031c-15.5371 16.8379 -37.4443 17.2529 -49.1191 16.0068
c-27.6113 -2.9541 -54.9248 -19.2432 -74.9277 -44.707c-1.75488 -2.2334 -2.80469 -4.22363 -3.29785 -5.4541c3.83887 -10.9531 -0.932617 -23.3252 -11.5645 -28.7158c-11.5957 -5.86035 -25.7227 -1.24512 -31.5986 10.335
c-7.87402 15.5293 -4.32422 35.3057 9.49707 52.8877c27.791 35.3604 66.7471 58.1055 106.887 62.3994zM70.9473 489.482c-11.8076 5.375 -17.0332 19.3135 -11.6504 31.1133c28.7861 63.2686 77.6699 111.572 134.106 132.531
c47.4736 17.6367 92.5254 7.62305 117.551 -26.1387c31.9678 -43.1172 20.2852 -105.759 13.7822 -130.69c-23.4502 -89.8926 -83.9688 -161.106 -157.956 -185.857c-10.3193 -3.44727 -20.1758 -5.14746 -29.3193 -5.14746c-19.251 0 -35.3916 7.52148 -46.2197 22.0791
c-16.9238 22.7529 -14.417 54.2656 -9.33203 76.7051c15.3174 67.6328 55.292 120.536 96.207 167.625c8.50879 9.79395 23.3564 10.8438 33.1582 2.32715c9.80176 -8.50879 10.8359 -23.3564 2.32715 -33.1582c-42.6309 -49.0713 -73.5488 -92.8701 -85.8496 -147.176
c-4.68555 -20.708 -2.45215 -33.3457 1.20703 -38.2588c4.33301 -5.83691 17.4648 -2.23242 22.9023 -0.407227c58.1914 19.4629 108.188 79.5742 127.376 153.139c7.70996 29.5625 10.1699 68.9502 -6.05664 90.834c-17.6289 23.7871 -50.2236 14.9648 -63.4258 10.0684
c-44.7861 -16.6338 -84.0322 -55.9658 -107.679 -107.929c-5.375 -11.8154 -19.2979 -17.0498 -31.1289 -11.6592z" />
    <glyph glyph-name="ampersand" unicode="&#x26;" horiz-adv-x="556" 
d="M433.24 385.687c-40.2412 -58.3564 -91.3252 -112.239 -156.177 -164.727c-10.1543 -8.21875 -20.4414 -16.25 -30.7529 -24.2578c0.666016 -12.5752 1.66895 -25.1348 3.0166 -37.6318c3.72949 -34.584 11.3926 -76.5957 26.9297 -113.938
c5.8916 6.00195 11.541 11.9883 16.916 17.8252c62.9551 68.3223 118.585 146.886 165.353 233.503c6.17383 11.4316 20.4258 15.6865 31.8496 9.5127c11.4238 -6.16602 15.6787 -20.4258 9.5127 -31.8496c-48.625 -90.0576 -106.542 -171.825 -172.138 -243.023
c-8.68945 -9.42578 -18.0215 -19.2119 -27.9883 -28.8965c5.18652 -7.17676 10.875 -13.8525 17.0957 -19.8779c35.626 -34.4824 86.2803 -40.6797 126.028 -15.4189c10.9531 6.97363 25.4795 3.72949 32.4453 -7.22363s3.72949 -25.4795 -7.22363 -32.4453
c-24.2344 -15.4043 -51.1328 -22.9492 -77.9844 -22.9492c-37.9219 0 -75.7656 15.0439 -105.954 44.2607c-7.02832 6.79297 -13.6338 14.2676 -19.8154 22.416c-30.4473 -23.9756 -65.2275 -43.6338 -103.862 -50.168c-41.1348 -6.93457 -76.9336 6.84766 -95.7852 36.9189
c-14.8555 23.709 -18.7334 57.1807 -10.3652 89.5322c7.90527 30.5488 24.8291 54.6885 36.8721 70.1943c31.8418 40.9619 69.709 72.2324 107.271 101.614c-2.45996 128.418 27.9482 257.988 86.4219 363.63c31.2471 56.4521 63.0264 90.5273 100.008 107.231
c29.875 13.5 59.8213 11.8779 82.167 -4.44238c43.0938 -31.4893 40.0771 -99.5537 38.1182 -119.667c-5.77441 -59.3516 -29.3115 -118.271 -71.958 -180.122zM152.648 -32.8438c31.3408 5.30469 60.7861 22.8398 87.0967 44.3008
c-18.6084 38.2588 -31.0508 85.9121 -37.1621 142.568c-0.274414 2.51465 -0.533203 5.02148 -0.776367 7.54395c-26.7334 -21.9463 -51.7197 -44.9736 -73.4775 -72.9766c-15.0752 -19.3994 -24.125 -36.2764 -28.4814 -53.1143
c-5.03809 -19.4863 -3.19727 -40.21 4.69238 -52.793c11.6748 -18.624 35.1572 -17.7148 48.1084 -15.5293zM245.684 256.054c0.603516 0.485352 1.20703 0.970703 1.81055 1.44824c61.2939 49.6045 109.394 100.267 147.049 154.87
c38.001 55.1123 58.8896 106.785 63.8652 157.98c3.42383 35.3213 -4.23145 66.3252 -19.0635 77.1611c-4.52051 3.30664 -9.71484 4.49805 -14.8389 4.49805c-7.71777 0 -15.2939 -2.69531 -20.2461 -4.93652c-26.9062 -12.1523 -52.4883 -40.6562 -78.2266 -87.1504
c-49.1025 -88.7178 -76.9727 -195.699 -80.3496 -303.871z" />
    <glyph glyph-name="quotesingle" unicode="'" horiz-adv-x="228" 
d="M168.891 727.793c10.1152 -8.14062 11.7227 -22.9336 3.57422 -33.0566c-28.6064 -35.5713 -55.0342 -74.4648 -78.5479 -115.6c-4.33301 -7.5918 -12.2617 -11.8467 -20.4258 -11.8467c-3.95703 0 -7.96094 0.995117 -11.6436 3.10254
c-11.2744 6.44043 -15.1846 20.8027 -8.74414 32.0693c24.7432 43.2812 52.5732 84.2432 82.7383 121.742c8.13281 10.1152 22.9258 11.7295 33.0488 3.58887z" />
    <glyph glyph-name="quotesingle" unicode="&#x2019;" horiz-adv-x="228" 
d="M168.891 727.793c10.1152 -8.14062 11.7227 -22.9336 3.57422 -33.0566c-28.6064 -35.5713 -55.0342 -74.4648 -78.5479 -115.6c-4.33301 -7.5918 -12.2617 -11.8467 -20.4258 -11.8467c-3.95703 0 -7.96094 0.995117 -11.6436 3.10254
c-11.2744 6.44043 -15.1846 20.8027 -8.74414 32.0693c24.7432 43.2812 52.5732 84.2432 82.7383 121.742c8.13281 10.1152 22.9258 11.7295 33.0488 3.58887z" />
    <glyph glyph-name="quotesingle" unicode="&#x2018;" horiz-adv-x="228" 
d="M168.891 727.793c10.1152 -8.14062 11.7227 -22.9336 3.57422 -33.0566c-28.6064 -35.5713 -55.0342 -74.4648 -78.5479 -115.6c-4.33301 -7.5918 -12.2617 -11.8467 -20.4258 -11.8467c-3.95703 0 -7.96094 0.995117 -11.6436 3.10254
c-11.2744 6.44043 -15.1846 20.8027 -8.74414 32.0693c24.7432 43.2812 52.5732 84.2432 82.7383 121.742c8.13281 10.1152 22.9258 11.7295 33.0488 3.58887z" />
    <glyph glyph-name="parenleft" unicode="(" horiz-adv-x="658" 
d="M604.799 921.392c6.43262 -11.2744 2.50879 -25.6309 -8.77344 -32.0713c-11.2822 -6.44824 -25.6279 -2.50684 -32.0605 8.76758c-13.8135 24.1953 -49.2363 8.3291 -56.2021 4.89746c-38.0713 -18.7334 -75.7822 -53.7412 -115.295 -107.021
c-54.0859 -72.9453 -96.0352 -156.421 -129.93 -228.449c-56.2959 -119.635 -134.052 -301.653 -159.305 -500.251c-7.64746 -60.1348 -8.21191 -105.218 -1.8418 -146.188c7.6709 -49.2598 26.9922 -91.6641 53.0049 -116.337
c34.4043 -32.6104 83.7031 -35.2119 119.909 -6.30762c10.1387 8.10156 24.9316 6.43262 33.0332 -3.69824c8.10156 -10.1465 6.44043 -24.9316 -3.69824 -33.0332c-25.2061 -20.1289 -55.2305 -30.0713 -85.2627 -30.0713
c-34.498 -0.0078125 -69.0273 13.1162 -96.3252 39.0039c-33.9023 32.1475 -57.7373 83.0059 -67.1084 143.219c-7.08301 45.5146 -6.57324 94.6562 1.65332 159.344c26.0908 205.195 105.751 391.813 163.402 514.34c34.8818 74.1201 78.1631 160.182 134.709 236.441
c44.0811 59.4297 87.3623 99.0752 132.305 121.193c48.6953 23.9443 96.0117 14.3857 117.785 -23.7793z" />
    <glyph glyph-name="parenright" unicode=")" horiz-adv-x="614" 
d="M552.503 772.367c12.5361 -70.1016 14.6816 -149.018 6.76074 -248.352c-19.0312 -238.683 -82.2607 -448.352 -182.849 -606.355c-58.0664 -91.209 -117.958 -143.258 -183.092 -159.101c-10.1621 -2.46777 -20.7939 -3.74512 -31.5127 -3.74512
c-45.0518 0 -91.5459 22.4951 -110.327 72.9141c-4.52832 12.1602 1.65332 25.6914 13.8213 30.2275s25.6992 -1.66113 30.2275 -13.8213c14.3145 -38.416 54.9395 -47.6064 86.6797 -39.8965c52.0332 12.6533 104.027 59.3115 154.549 138.666
c96.4824 151.548 157.221 353.781 175.642 584.84c7.5918 95.2051 5.63281 170.305 -6.1748 236.34c-4.70898 26.3105 -13.2881 64.0605 -33.3457 87.9189c-12.7012 15.0986 -34.0439 24.7363 -48.5625 12.8584c-10.0605 -8.20312 -24.877 -6.71484 -33.0801 3.33789
c-8.21094 10.0605 -6.71484 24.8691 3.33789 33.0801c33.2285 27.1172 82.3545 18.9531 114.283 -19.0156c27.3057 -32.4688 37.9854 -78.2734 43.6426 -109.896z" />
    <glyph glyph-name="asterisk" unicode="*" horiz-adv-x="420" 
d="M369.188 592.347c2.24121 -12.7871 -6.30469 -24.9697 -19.1074 -27.1953c-24.5635 -4.30176 -45.1934 -6.62109 -63.3945 -8.66602c-27.541 -3.09473 -45.0762 -5.34375 -57.7295 -10.9229c7.89746 -51.4219 11.8857 -127.242 7.7334 -165.571
c-1.30859 -12.043 -11.502 -20.9746 -23.3408 -20.9746c-0.84668 0 -1.70117 0.046875 -2.56348 0.140625c-12.9043 1.40234 -22.2363 12.998 -20.834 25.9023c2.88379 26.6084 1.08984 76.7529 -3.2666 119.814c-27.29 -41.1113 -61.9053 -82.0654 -95.5654 -104.239
c-3.98047 -2.625 -8.46973 -3.88672 -12.9043 -3.88672c-7.63965 0 -15.1377 3.72168 -19.6504 10.5771c-7.14551 10.8359 -4.15234 25.417 6.69141 32.5547c35.5166 23.4111 75.7812 76.4473 102.178 123.356c-68.4248 20.5049 -85.4736 20.709 -89.2109 20.1914
c-12.6699 -2.64062 -25.0576 5.49219 -27.7217 18.1934s5.57812 25.1904 18.2871 27.8545c17.6836 3.71387 52.5186 -3.0166 118.514 -23.1133c0.477539 0.336914 0.955078 0.595703 1.43262 0.893555c14.4482 36.7158 17.7158 69.2002 18.915 121.422
c0.297852 12.9824 11.0244 23.2773 24.0391 22.9561c12.9746 -0.297852 23.2539 -11.0557 22.9561 -24.0381c-1.24609 -54.376 -4.88184 -90.9736 -19.6982 -131.113c13.8994 3.02441 29.2725 4.77148 46.4941 6.70703c17.5273 1.97461 37.3975 4.20801 60.5352 8.25879
c12.8262 2.24902 24.9707 -6.31445 27.2119 -19.1016z" />
    <glyph glyph-name="plus" unicode="+" horiz-adv-x="333" 
d="M261.131 324.564c12.9277 -1.13574 22.4951 -12.5479 21.3672 -25.46c-1.13574 -12.9355 -12.5127 -22.5732 -25.4717 -21.3584c-24.4219 2.14648 -48.9229 2.72656 -73.3994 1.91211c-14.4873 -66.3164 -26.2324 -133.589 -34.7881 -201.613
c-1.49609 -11.8857 -11.6191 -20.5752 -23.2939 -20.5752c-0.979492 0 -1.9668 0.0625 -2.96191 0.1875c-12.8809 1.62207 -22.0088 13.375 -20.3867 26.2559c8.14844 64.75 19.0938 128.857 32.5156 192.126c-18.875 -2.14648 -37.6875 -5.07715 -56.3818 -8.9873
c-1.62207 -0.336914 -3.23633 -0.500977 -4.83496 -0.500977c-10.8984 0 -20.6689 7.6084 -22.9883 18.6953c-2.66406 12.709 5.48438 25.167 18.1934 27.8232c25.4014 5.3125 51.0146 9.0498 76.7061 11.3457c18.0918 77.0352 40.0459 152.645 65.7998 226.279
c4.05078 11.5879 15.208 24.0225 30.165 24.0225h0.179688c11.3135 -0.078125 21.0137 -7.29395 24.7275 -18.3887c3.96484 -11.8623 -2.06055 -24.665 -13.5234 -29.2646c-22.5264 -65.251 -41.8789 -132.132 -58.2861 -200.125
c22.2363 0.313477 44.4805 -0.422852 66.6621 -2.37402z" />
    <glyph glyph-name="comma" unicode="," horiz-adv-x="263" 
d="M201.191 18.915c11.2041 -6.55762 14.9717 -20.958 8.42188 -32.1465c-36.8721 -63.0107 -76.126 -125.065 -116.696 -184.456c-4.55176 -6.66016 -11.9248 -10.249 -19.4307 -10.249c-4.56055 0 -9.17578 1.32422 -13.2344 4.09766
c-10.7188 7.31836 -13.4766 21.9463 -6.15039 32.665c39.9434 58.4814 78.6182 119.611 114.935 181.674c6.5498 11.2041 20.9355 14.9805 32.1553 8.41504z" />
    <glyph glyph-name="hyphen" unicode="-" horiz-adv-x="374" 
d="M301.236 325.709c12.9824 -0.188477 23.3486 -10.8594 23.1602 -23.8418c-0.188477 -12.8652 -10.6719 -23.168 -23.498 -23.168h-0.34375c-74.7236 1.07324 -150.45 -1.62988 -225.041 -8.03906c-0.681641 -0.0625 -1.36328 -0.0859375 -2.03711 -0.0859375
c-12.0664 0 -22.3379 9.24512 -23.3877 21.4912c-1.1123 12.9355 8.46973 24.3203 21.4053 25.4326c76.1416 6.5498 153.436 9.31543 229.742 8.21094z" />
    <glyph glyph-name="period" unicode="." horiz-adv-x="154" 
d="M84.584 -19.4609c12.8262 -1.99023 21.6191 -13.9941 19.6211 -26.8203l-7.47461 -48.1787c-1.79395 -11.6113 -11.7998 -19.9092 -23.1924 -19.9092c-1.19922 0 -2.41406 0.09375 -3.63672 0.282227c-12.8262 1.99023 -21.6094 13.9941 -19.6191 26.8281
l7.47461 48.1787c1.98242 12.834 13.9697 21.6406 26.8271 19.6191z" />
    <glyph glyph-name="slash" unicode="/" horiz-adv-x="645" 
d="M583.828 902.689c11.0557 -6.79297 14.5098 -21.2705 7.7168 -32.3262c-193.066 -314.135 -359.963 -655.105 -496.06 -1013.45c-3.56543 -9.39453 -12.4971 -15.1689 -21.9775 -15.1689c-2.77344 0 -5.58594 0.493164 -8.33594 1.53516
c-12.1445 4.61523 -18.2402 18.1855 -13.6328 30.3223c137.146 361.091 305.359 704.725 499.961 1021.37c6.79297 11.0635 21.2725 14.5186 32.3281 7.71777z" />
    <glyph glyph-name="zero" unicode="0" horiz-adv-x="537" 
d="M403.633 651.73c20.0654 -11.1807 37.2871 -31.3574 51.1865 -59.9795c22.3145 -45.9062 32.7744 -103.769 31.9756 -176.894c-0.948242 -87.0254 -16.5869 -174.951 -45.2324 -254.274c-13.0146 -36.0342 -28.4893 -69.5918 -45.9854 -99.7646
c-22.7373 -39.2148 -48.8984 -72.6865 -77.7471 -99.4902c-37.209 -34.5605 -74.9277 -53.6309 -112.105 -56.6865c-3.10254 -0.258789 -6.20508 -0.383789 -9.29199 -0.383789c-41.4326 0 -80.749 22.7529 -106.613 62.2109
c-111.228 169.686 33.4092 532.367 154.196 645.828c30.8857 29.084 65.541 46.4229 100.188 50.1211c22.3848 2.41309 42.3955 -1.19922 59.4287 -10.6875zM397.349 176.551c26.875 74.418 41.5479 157.002 42.4336 238.816
c0.712891 65.666 -8.19531 116.642 -27.2422 155.841c-9.48047 19.5098 -20.4736 33.1504 -31.7959 39.458c-6.51855 3.62793 -14.3848 5.45312 -23.4736 5.45312c-2.60156 0 -5.29688 -0.148438 -8.08594 -0.446289c-24.3672 -2.60156 -49.5967 -15.6084 -72.9766 -37.625
c-117.825 -110.688 -237.146 -448.398 -147.073 -585.812c18.1934 -27.7598 45.4131 -43.0146 72.7344 -40.75c26.4199 2.16992 54.666 17.0645 83.9541 44.2764c25.4326 23.6309 48.6797 53.4512 69.082 88.6387c16.1016 27.7441 30.377 58.748 42.4434 92.1494z" />
    <glyph glyph-name="one" unicode="1" horiz-adv-x="444" 
d="M368.739 662.975c24.3906 -21.4443 26.6494 -59.3945 24.252 -87.4521c-3.30664 -38.666 -12.6309 -74.833 -25.6211 -117.245c-21.1318 -69.0039 -46.0713 -137.154 -70.1953 -203.063c-38.0635 -104.004 -77.4199 -211.549 -101.74 -322.902
c-0.454102 -2.08398 -1.2373 -3.98828 -2.17773 -5.79004c31.6465 -1.12012 64.1699 -1.05762 73.8857 3.64355c9.55078 7.9209 23.7402 7.08301 32.2646 -2.13867c8.81445 -9.53516 8.22656 -24.4062 -1.30078 -33.2207
c-12.5439 -11.5879 -35.2891 -15.8428 -76.2041 -15.8428c-21.75 0 -48.6328 1.19922 -81.8535 3.13477c-21.6953 1.26953 -48.3662 2.8291 -57.1416 1.99902c-8.62695 -3.76855 -19.04 -2.09961 -26.0762 4.9834c-9.15137 9.21387 -9.09668 24.0928 0.109375 33.2441
c10.7656 10.6953 24.1875 10.3037 85.8506 6.70703c2.44434 -0.140625 5.10059 -0.296875 7.87402 -0.453125c-1.69238 4.22363 -2.19336 8.9873 -1.15137 13.7666c25.002 114.479 64.9219 223.553 103.525 329.029c23.9053 65.3291 48.6328 132.876 69.3877 200.674
c12.1133 39.5439 20.7793 72.9531 23.7256 107.482c2.38965 27.9561 -3.05566 43.415 -8.44629 48.1553c-4.40332 3.87012 -12.8184 2.56152 -19.0947 0.775391c-16.3838 -4.63086 -33.5898 -14.8945 -54.1494 -32.2969
c-32.0771 -27.1484 -60.166 -60.7217 -83.5068 -99.7803c-8.24219 -13.8135 -15.9678 -28.7393 -16.5713 -44.2529c-0.500977 -12.9746 -11.3916 -23.2227 -24.3984 -22.5723c-12.9746 0.500977 -23.0742 11.4229 -22.5732 24.3975
c1.01074 26.1221 12.2852 48.2881 23.1836 66.5361c25.9971 43.5088 57.4473 81.0391 93.4893 111.549c25.8643 21.8916 48.6562 35.125 71.7227 41.6436c31.7246 8.9873 51.7354 -0.869141 62.9316 -10.71z" />
    <glyph glyph-name="two" unicode="2" horiz-adv-x="566" 
d="M428.475 668.749c32.249 -10.2793 60.0771 -41.6484 74.4229 -83.9033c10.4678 -30.792 14.4873 -66.3711 12.6621 -111.979c-3.43164 -85.6699 -24.665 -173.784 -63.1279 -261.898c-39.1445 -89.6816 -92.9014 -170.972 -156.014 -236.129
c11.5879 -1.70801 23.6621 -3.51758 36.2295 -5.4375c55.6846 -8.48535 131.96 -20.1045 147.074 -15.333c12.293 3.87012 25.6367 -2.78223 29.6406 -15.0283c4.01172 -12.2461 -2.3584 -25.3623 -14.5654 -29.499c-24.0459 -8.14844 -77.2627 -0.626953 -169.224 13.3896
c-20.7002 3.14941 -46.5166 7.09082 -73.3125 10.7266c-17.1279 -13.9932 -37.2881 -27.9004 -59.4619 -37.6162c-21.3975 -9.37891 -43.1553 -14.0879 -64.0908 -14.0879c-17.9502 0 -35.2812 3.45508 -51.2803 10.3975c-4.28613 1.86523 -15.6709 6.80176 -22.4014 19.127
c-5.24219 9.61328 -9.03418 26.1377 2.66406 50.2939c16.1094 33.3154 69.6553 35.3682 179.794 21.2646c4.5918 4.17578 9.28516 8.61816 14.1035 13.3506c64.0137 62.877 118.57 143.579 157.77 233.386c36.1201 82.7393 56.0449 165.157 59.2412 244.974
c1.59082 39.6455 -1.65332 69.8262 -10.1934 94.9609c-9.44141 27.7754 -26.3887 48.5625 -44.2217 54.251c-32.6885 10.4678 -70.0703 -29.2568 -84.6045 -46.8076c-41.6201 -50.2549 -64.4678 -106.966 -64.3193 -159.688v-0.078125
c4.95215 -3.25977 8.68164 -8.37598 10.0449 -14.6123c2.77344 -12.6777 -5.25781 -25.2139 -17.9355 -27.9873c-8.58691 -1.88867 -17.4717 0.226562 -24.3896 5.77344c-13.6094 10.9297 -14.7139 30.9092 -14.7295 36.7773
c-0.227539 81.6348 40.7266 148.28 75.123 189.807c44.2373 53.4121 92.2197 75.2959 135.102 61.6074zM173.947 -60.8965c2.08398 0.90918 4.17773 1.88184 6.27734 2.91602c-38.4316 3.39258 -70.3838 3.83887 -81.0322 -2.51562
c-0.814453 -1.85645 -1.33984 -3.40039 -1.66895 -4.59961c22.2754 -9.14355 49.3457 -7.6709 76.4238 4.19922z" />
    <glyph glyph-name="three" unicode="3" horiz-adv-x="535" 
d="M391.275 645.815c36.9824 -1.03418 67.9375 -19.3301 82.7773 -48.9395c11.0244 -21.9932 13.4766 -50.8418 6.72266 -79.127c-6.27637 -26.2793 -18.9141 -47.7559 -29.2168 -63.5283c-25.2217 -38.5957 -56.4209 -71.5029 -91.1934 -96.7168
c11.04 -5.21777 21.5469 -12.168 31.1758 -20.7627c31.4893 -28.1279 52.166 -73.2822 55.3232 -120.787c2.06836 -31.168 -2.82031 -64.5303 -14.9492 -101.998c-39.9199 -123.325 -134.506 -214.534 -240.962 -232.367
c-10.6562 -1.78613 -20.6855 -2.67969 -30.1582 -2.67969c-14.8945 0 -28.418 2.20996 -40.876 6.65234c-26.9297 9.60547 -48.876 30.2822 -60.2295 56.7256c-19.9404 46.4629 -4.63086 98.3555 6.26758 125.151c26.0518 64.0684 72.8271 113.336 128.323 135.173
c41.3145 16.25 79.2676 10.6787 104.16 -15.2871c8.9873 -9.37891 8.67383 -24.2578 -0.697266 -33.2373c-9.37891 -8.9873 -24.2578 -8.67383 -33.2373 0.697266c-15.1064 15.7568 -39.7012 9.31641 -53.0127 4.07422
c-42.9443 -16.9004 -81.0781 -57.6982 -101.998 -109.136c-13.8447 -34.0361 -16.25 -66.4346 -6.6123 -88.8984c6.21289 -14.4717 18.1689 -25.7617 32.8203 -30.9873c12.8105 -4.57617 27.8936 -5.17969 47.4736 -1.88867c87.9805 14.7305 169.96 95.2998 204.012 200.471
c10.2559 31.6855 14.4238 59.2969 12.7627 84.4082c-2.32715 34.9766 -17.5508 69.0205 -39.7324 88.8359c-20.6924 18.4834 -47.3867 24.8535 -71.4014 17.0576c-12.1445 -3.94922 -25.1982 2.51465 -29.4375 14.5498c-4.23145 12.043 1.91113 25.2607 13.8438 29.7812
c53.6631 20.3477 103.024 61.8584 138.979 116.877c12.2148 18.6943 19.2588 33.7227 22.8398 48.7266c4.16016 17.4336 3.03223 35.0625 -3.02441 47.1445c-9.66113 19.2744 -30.5029 22.6982 -42.0674 23.0195c-53.2793 1.79395 -106.833 -49.377 -122.534 -115.804
c-2.97754 -12.6299 -15.6631 -20.4727 -28.2773 -17.4639c-12.6299 2.97754 -20.4492 15.6475 -17.4639 28.2773c20.9824 88.7803 93.9668 153.891 169.6 151.986z" />
    <glyph glyph-name="four" unicode="4" horiz-adv-x="555" 
d="M489.931 673.042c12.1289 -4.63086 18.1992 -18.2178 13.5684 -30.3467c-91.4365 -239.474 -174.521 -487.433 -246.933 -736.998c-2.98535 -10.2793 -12.3721 -16.9629 -22.5654 -16.9629c-2.16211 0 -4.37207 0.305664 -6.55762 0.94043
c-12.4658 3.62012 -19.6348 16.6582 -16.0225 29.124c37.9531 130.823 78.8994 261.169 122.361 390.136c-46.3369 -5.61816 -202.178 -49.5576 -241.181 -63.5195c-2.8125 -2.05273 -5.28027 -3.54102 -7.34863 -4.41113
c-3.57324 -1.50391 -7.26367 -2.24805 -10.876 -2.24805c-4.54395 0 -8.96289 1.18359 -12.8809 3.52637c-10.0762 6.02539 -14.2285 18.7812 -9.62891 29.5781c2.11523 4.97559 3.70605 8.7207 17.8096 14.8477c40.6797 34.8506 231.074 283.719 251.203 367.767
c3.02441 12.6221 15.7178 20.4023 28.332 17.3857c12.6299 -3.02441 20.4102 -15.71 17.3857 -28.332c-16.5166 -68.9883 -128.692 -232.5 -208.282 -328.841c11.1963 3.12598 23.623 6.54199 37.4131 10.2871c114.965 31.1992 143.492 32.6953 154.141 31.167
c35.0469 102.226 71.6133 203.542 109.716 303.33c4.63086 12.1211 18.2168 18.1934 30.3457 13.5703z" />
    <glyph glyph-name="five" unicode="5" horiz-adv-x="626" 
d="M538.004 628.508c8.77539 6.66016 21.3223 6.39941 29.8545 -1.23242c9.68457 -8.65039 10.5146 -23.5137 1.86426 -33.1904c-15.459 -17.292 -58.9756 -20.9668 -273.886 -23.1133c-6.62109 -0.0625 -13.3984 -0.132812 -20.2227 -0.203125l-113.344 -198.613
c8.43848 0.399414 17.1592 1.61426 26.1699 2.87598c8.25 1.15137 16.7744 2.34277 25.5498 2.99316c51.0693 3.82324 99.9922 -11.9961 137.727 -44.5195c41.3145 -35.6025 67.9854 -91.1455 71.3545 -148.577c3.18848 -54.2979 -14.2529 -111.902 -47.8584 -158.052
c-27.1797 -37.3105 -63.9268 -67.3975 -112.363 -91.9766c-22.04 -11.1807 -55.0576 -25.7695 -90.7393 -25.7695c-1.39453 0 -2.78906 0.015625 -4.19141 0.0625c-38.917 1.26953 -74.5117 21.3584 -95.2119 53.7412c-22.6514 35.4385 -28.8018 87.127 -16.4297 138.267
c10.6162 43.9238 32.0137 80.9922 53.0273 115.2c6.79297 11.0635 21.2725 14.5186 32.3281 7.72559c11.0635 -6.79297 14.5186 -21.2646 7.72559 -32.3281c-19.0391 -31.0039 -38.3838 -64.3896 -47.3867 -101.646c-9.27637 -38.3691 -5.31934 -77.4121 10.3428 -101.905
c12.5361 -19.6113 33.3623 -31.2939 57.1338 -32.0693c20.1758 -0.705078 43.0781 5.90039 72.1309 20.6387c41.6514 21.1318 72.9297 46.5566 95.6279 77.7246c27.3057 37.4912 41.5029 84.0088 38.9404 127.619c-2.60156 44.3232 -23.7256 88.6621 -55.1211 115.725
c-28.2148 24.3203 -64.9229 36.1201 -103.534 33.2441c-7.27148 -0.541016 -14.6992 -1.5752 -22.5576 -2.67188c-17.833 -2.4834 -36.2773 -5.05371 -55.9746 -2.34277c-12.1211 1.66895 -20.998 7.15332 -26.3887 16.2969
c-4.95215 8.43066 -8.43848 22.7139 3.10254 42.9287l105.43 184.737c-52.832 -0.837891 -100.861 -2.28711 -116.587 -5.49121c-3.48633 -2.79688 -7.81934 -4.62988 -12.6064 -5.05273c-0.705078 -0.0625 -1.41016 -0.09375 -2.09961 -0.09375
c-12.0508 0 -22.3066 9.20605 -23.3877 21.4365c-0.611328 6.91016 1.74707 13.8604 6.47168 19.0703c11.1885 12.3486 26.8428 15.5693 175.232 17.5049l2.25684 3.94922c6.43262 11.2744 20.7861 15.2158 32.0605 8.76758
c4.96777 -2.82812 8.40723 -7.23926 10.2637 -12.207c0.901367 0.015625 1.74707 0.0234375 2.65625 0.03125c87.542 0.870117 219.103 2.18652 242.64 10.5156z" />
    <glyph glyph-name="six" unicode="6" horiz-adv-x="485" 
d="M397.858 653.807c9.42578 6.39355 22.0908 5.08789 30.0283 -3.10742c7.93652 -8.1875 8.85352 -20.8809 2.17773 -30.126l-8.17969 -11.3301c-4.11328 -5.68848 -10.2871 -8.9873 -16.7588 -9.62207c-12.293 -11.251 -23.8105 -24.3438 -34.7637 -37.1465
c-49.832 -58.207 -97.7832 -122.322 -142.529 -190.551c-31.1289 -47.4658 -68.5576 -108.463 -96.8584 -178.259c31.7559 8.10156 61.9844 8.08594 67.1865 8.0625c31.834 -0.383789 60.4795 -14.2754 78.5947 -38.1182
c10.1855 -13.4141 17.5664 -30.2598 21.9229 -50.0752c8.6582 -39.4111 3.36133 -82.9199 -14.542 -119.354c-17.3232 -35.2422 -45.3574 -62.2422 -78.9385 -76.0166c-14.6357 -6.01758 -29.624 -8.97949 -44.1504 -8.97949c-21.8135 0 -42.584 6.68359 -59.5938 19.7686
c-29.4912 22.6982 -48.6094 65.29 -51.1484 113.931c-2.40527 46.3213 9.84082 90.3936 19.2588 119.517c30.4941 94.2725 79.5967 175.265 118.961 235.298c45.8438 69.8975 95.0098 135.619 146.126 195.347c18.5303 21.6484 38.6826 44.1748 63.207 60.7617z
M197.595 154.718c-24.3359 0.352539 -65.9404 -4.90332 -87.417 -20.0723c-10.1621 -34.584 -14.2832 -63.2295 -12.9277 -89.3125c1.77051 -34.0596 14.6748 -65.1104 32.8682 -79.1113c21.4688 -16.5088 47.1836 -8.68945 57.2363 -4.56055
c22.6201 9.27637 42.5215 28.6914 54.5957 53.2549c13.1006 26.6553 17.1436 59.751 10.8125 88.5293c-2.83594 12.9277 -7.48242 23.8887 -13.4375 31.7236c-12.709 16.7285 -31.5996 19.4316 -41.7305 19.5488z" />
    <glyph glyph-name="seven" unicode="7" horiz-adv-x="410" 
d="M322.032 235.042c-22.7764 0.932617 -48.8623 1.98145 -75.3848 1.98145c-45.5146 -133.582 -92.7061 -274.012 -97.7051 -314.997c-1.44922 -11.917 -11.5879 -20.6611 -23.3018 -20.6611c-0.948242 0 -1.9043 0.0546875 -2.87598 0.171875
c-12.8887 1.56738 -22.0635 13.2891 -20.4883 26.1777c5.36719 44.041 46.7363 168.354 94.1465 307.646c-23.6621 -1.71582 -46.2197 -4.93652 -65.4863 -10.6484c-2.22559 -0.658203 -4.47461 -0.979492 -6.69238 -0.979492c-10.1387 0 -19.4941 6.61328 -22.5264 16.8301
c-3.69043 12.4424 3.4082 25.5273 15.8584 29.2178c28.3867 8.41504 61.6152 12.168 95.1963 13.5547c0.422852 1.23828 0.837891 2.46094 1.26074 3.69922c39.5283 115.843 87.6836 256.978 97.3125 303.189c-19.1025 1.85742 -55.7236 0.776367 -86.4062 -0.132812
c-49.04 -1.44922 -104.615 -3.08691 -153.71 1.69238c-12.9199 1.25391 -22.377 12.748 -21.1152 25.668c1.25391 12.9199 12.748 22.416 25.668 21.1152c46.1182 -4.48926 100.118 -2.89062 147.771 -1.48828c75.7031 2.2334 109.872 2.61719 126.843 -11.5176
c19 -15.8271 19.2588 -27.6738 -87.7617 -341.637c21.7031 -0.297852 42.584 -1.14355 61.334 -1.91113l4.41113 -0.180664c12.9668 -0.533203 23.0586 -11.4785 22.5254 -24.4453s-11.3301 -23.0195 -24.4463 -22.5264z" />
    <glyph glyph-name="eight" unicode="8" horiz-adv-x="474" 
d="M50.334 39.3428c-1.43359 23.0117 1.7334 47.4619 9.95996 76.9531c22.2051 79.668 65.1182 153.476 118.93 205.258c-12.5596 29.8281 -22.8711 64.4199 -23.3408 101.66c-0.477539 37.2871 9.12012 75.9775 27.7598 111.886
c30.416 58.6074 79.7148 97.0547 131.857 102.86c32.1553 3.58105 61.8506 -6.36133 81.4229 -27.2969c17.418 -18.6318 27.3848 -46.9014 27.3301 -77.5605c-0.0546875 -29.0996 -8.69727 -55.9824 -15.2002 -73.666c-28.5986 -77.7871 -73 -141.299 -142.944 -203.94
c12.8262 -23.4502 25.4014 -47.7861 35.0146 -74.0967c19.9951 -54.7207 21.9775 -108.532 5.59375 -151.508c-21.2646 -55.7705 -74.3398 -94.6875 -135.227 -99.1455c-3.6748 -0.266602 -7.29492 -0.399414 -10.8682 -0.399414
c-32.4219 0 -60.4326 10.9854 -79.707 31.459c-17.7861 18.8906 -28.6455 46.4238 -30.5811 77.5371zM225.365 513.445c-15.083 -29.0605 -22.8545 -60.0537 -22.4707 -89.6318c0.446289 -35.1328 12.3242 -68.793 25.4639 -97.1016
c0.383789 -0.728516 0.728516 -1.46484 1.03418 -2.2168c3.30664 -7.02051 6.68359 -13.7119 9.95898 -19.9883c1.15137 -2.20996 2.31055 -4.41211 3.48535 -6.61426c59.2891 54.8936 97.3994 110.602 122.088 177.765c8.37598 22.7764 12.2861 41.0557 12.3174 57.5254
c0.03125 18.5615 -5.44531 35.5322 -14.6592 45.3809c-13.2568 14.1738 -33.7148 13.5859 -41.8789 12.6768c-35.9795 -4.00391 -72.5068 -33.8164 -95.3389 -77.7949zM105.574 103.67c-6.76953 -24.2812 -9.41797 -43.791 -8.31348 -61.4121
c1.23828 -19.8857 7.75684 -37.46 17.8877 -48.2256c15.5371 -16.4854 39.8418 -17.3555 52.9189 -16.3916c35.0312 2.5625 77.9131 24.8926 94.7275 69.0049c16.6729 43.7197 3.50977 93.0889 -5.82227 118.632c-10.5146 28.7705 -25.1426 55.1748 -40.6328 83.1152
c-5.20215 9.38672 -10.4043 18.7812 -15.4502 28.2617c-42.7725 -45.2559 -76.8477 -106.723 -95.3154 -172.984z" />
    <glyph glyph-name="nine" unicode="9" horiz-adv-x="511" 
d="M127.776 114.169c-10.9062 -18.7969 -24.0352 -43.8818 -28.9082 -71.2969c-4.53613 -25.6289 -0.751953 -51.3203 9.87207 -67.0537c15.8584 -23.4746 45.123 -22.9893 67.21 -14.7314c38.8076 14.5186 76.2285 51.0381 114.409 111.643
c59.2646 94.0771 99.5605 206.37 116.539 324.728c7.16113 49.918 9.14355 94.2568 5.9707 134.671c-5.15527 -8.95605 -10.0361 -18.5615 -15.0664 -28.4648l-2.9541 -5.80566c-56.2412 -110.193 -111.776 -184.321 -174.771 -233.291
c-26.5693 -20.6611 -49.7617 -32.5938 -72.9854 -37.5459c-27.2432 -5.82129 -51.0381 0.564453 -67.0059 17.9902c-14.3779 15.6934 -21.6016 40.8203 -19.3135 67.2324c1.87305 21.5781 9.1123 40.5469 16.6494 57.8389c30.9336 70.9316 74.9043 132.179 127.149 177.105
c40.2725 34.6396 80.5215 54.6582 119.627 59.4922c28.3711 3.52539 52.7695 -4.07422 68.7451 -20.7002c6.16602 6.86328 15.2783 14.0088 27.0469 15.082c8.60254 0.783203 16.9551 -1.94336 23.4971 -7.70215c10.374 -9.12793 12.2148 -22.252 13.1006 -28.5596
c7.25488 -51.7432 6.22852 -108.658 -3.14258 -174.02c-17.9111 -124.846 -60.542 -243.493 -123.294 -343.117c-43.8691 -69.6309 -88.9131 -112.355 -137.718 -130.611c-14.8008 -5.53906 -29.5469 -8.22656 -43.6191 -8.22656
c-32.3438 -0.0078125 -61.1377 14.2051 -79.0176 40.6719c-17.457 25.8486 -23.8896 63.8096 -17.2061 101.56c6.14258 34.6865 21.6797 64.5537 34.5293 86.7041c6.51074 11.2275 20.9043 15.043 32.124 8.53223c11.2275 -6.51074 15.0508 -20.8965 8.53223 -32.124z
M355.892 524.961c3.12598 6.14258 6.27539 12.3467 9.55859 18.5127c-1.05762 1.36328 -1.98242 2.85156 -2.74219 4.48145c-4.77148 10.2012 -15.9287 12.5518 -25.1738 12.5518c-2.77344 0 -5.36719 -0.211914 -7.56934 -0.486328
c-29.7422 -3.68262 -61.6152 -19.9873 -94.7422 -48.4756c-46.9248 -40.3506 -86.5859 -95.7686 -114.706 -160.26c-5.93945 -13.625 -11.6201 -28.2764 -12.9053 -43.1006c-1.12012 -12.9043 1.74707 -25.5342 7.1377 -31.4102
c5.44531 -5.93164 15.2549 -5.33594 22.5264 -3.77637c16.0381 3.42383 33.1816 12.5361 53.9443 28.6846c57.3613 44.5898 108.76 113.72 161.757 217.551z" />
    <glyph glyph-name="colon" unicode=":" horiz-adv-x="267" 
d="M206.512 476.935c10.7734 -7.24707 13.6318 -21.8447 6.38477 -32.626l-37.8281 -56.2646c-4.53613 -6.75391 -11.9561 -10.3975 -19.5244 -10.3975c-4.50488 0 -9.06445 1.30078 -13.0918 4.00391c-10.7734 7.24707 -13.6328 21.8516 -6.38574 32.625l37.8281 56.2646
c7.23926 10.7656 21.8359 13.6416 32.6172 6.39453zM128.888 118.365c10.9609 -6.9502 14.2227 -21.4697 7.28027 -32.4385c-13.6963 -21.6172 -28.708 -42.2393 -44.6211 -61.2783c-4.64648 -5.57031 -11.3301 -8.4375 -18.0527 -8.4375
c-5.3125 0 -10.6562 1.79395 -15.0596 5.46875c-9.9668 8.3291 -11.291 23.1533 -2.96191 33.1113c14.5889 17.4727 28.3867 36.4102 40.9775 56.2959c6.9502 10.9609 21.4688 14.2285 32.4375 7.27832z" />
    <glyph glyph-name="semicolon" unicode=";" horiz-adv-x="383" 
d="M320.608 491.195c11.541 -5.95508 16.0625 -20.1279 10.1074 -31.6689c-10.6562 -20.6533 -20.7246 -42.1611 -29.9385 -63.9268c-3.79199 -8.97168 -12.4971 -14.3623 -21.6562 -14.3623c-3.05566 0 -6.1582 0.603516 -9.15137 1.86523
c-11.9561 5.06152 -17.5508 18.8516 -12.4893 30.8076c9.67676 22.8711 20.2539 45.4678 31.458 67.1787c5.96289 11.5332 20.1055 16.0615 31.6699 10.1064zM216.48 112.633c11.4785 -6.07227 15.8525 -20.293 9.78809 -31.7637
c-37.3027 -70.4697 -83.1543 -132.681 -136.269 -184.91c-4.57617 -4.49707 -10.5312 -6.74609 -16.4863 -6.74609c-6.08789 0 -12.1602 2.34277 -16.7676 7.02832c-9.09668 9.25293 -8.97949 24.1318 0.28125 33.2363c49.6826 48.8369 92.6348 107.178 127.682 173.377
c6.07227 11.4707 20.293 15.8584 31.7715 9.77832z" />
    <glyph glyph-name="less" unicode="&#x3c;" horiz-adv-x="417" 
d="M356.9 491.085c10.5771 -7.5293 13.0459 -22.2051 5.5166 -32.79c-68.5264 -96.1924 -161.295 -155.262 -247.552 -205.305c38.5723 -25.292 85.8496 -33.0098 141.542 -39.834c12.8809 -1.5752 22.0479 -13.2969 20.4727 -26.1855
c-1.45703 -11.917 -11.5957 -20.6533 -23.3018 -20.6533c-0.956055 0 -1.91211 0.0546875 -2.88379 0.179688c-60.793 7.44336 -136.441 16.7041 -193.685 73.0703c-5.23438 5.16309 -7.75684 12.4736 -6.81641 19.7686c0.948242 7.28711 5.25 13.7197 11.6279 17.3789
c89.9082 51.5244 191.812 109.92 262.298 208.862c7.5293 10.5693 22.2041 13.0449 32.7812 5.50781z" />
    <glyph glyph-name="equal" unicode="=" horiz-adv-x="587" 
d="M112.818 349.426c-11.1025 0 -20.9756 7.89746 -23.083 19.1953c-2.38184 12.7559 6.0332 25.0332 18.7969 27.415c126.412 23.5762 255.19 30.542 382.755 20.748c12.9434 -0.995117 22.6279 -12.293 21.6328 -25.2363s-12.3955 -22.6201 -25.2373 -21.6328
c-123.475 9.49609 -248.132 2.73438 -370.532 -20.0898c-1.44922 -0.266602 -2.89844 -0.399414 -4.33203 -0.399414zM516.876 271.207c12.8652 -1.73145 21.8838 -13.5635 20.1523 -26.4443c-1.73926 -12.8652 -13.5391 -21.8604 -26.4355 -20.1523
c-143.986 19.4238 -289.415 14.0723 -432.258 -15.874c-1.62988 -0.336914 -3.25195 -0.500977 -4.85059 -0.500977c-10.8906 0 -20.6611 7.6084 -22.9805 18.6875c-2.66406 12.709 5.46875 25.167 18.1777 27.8311c148.108 31.0508 298.888 36.5898 448.194 16.4531z" />
    <glyph glyph-name="greater" unicode="&#x3e;" horiz-adv-x="437" 
d="M366.209 292.832c21.124 -15.2314 21.9209 -32.7422 20.5342 -41.8545c-2.07617 -13.5312 -11.1494 -21.9541 -14.5654 -25.1191c-19.1885 -17.8018 -40.2646 -30.5654 -60.2129 -42.1143c-74.3086 -43.0146 -151.767 -79.6436 -230.243 -108.877
c-2.70312 -1.00293 -5.46875 -1.48047 -8.20312 -1.48047c-9.53516 0 -18.5068 5.84473 -22.0322 15.3096c-4.52832 12.168 1.66113 25.6992 13.8291 30.2354c76.0088 28.3086 151.069 63.8096 223.098 105.508c16.0938 9.31641 32.9238 19.4473 47.623 32.1641
c-18.3418 12.7324 -38.7207 22.291 -60.2285 32.3828c-41.3535 19.3916 -84.1025 39.4492 -114.684 83.9062c-7.36523 10.6953 -4.6543 25.3311 6.04102 32.6885c10.7031 7.36523 25.3389 4.6543 32.6885 -6.04102c23.3564 -33.958 58.5986 -50.4824 95.9092 -67.9863
c23.5293 -11.04 47.8574 -22.4482 70.4463 -38.7217z" />
    <glyph glyph-name="question" unicode="?" horiz-adv-x="540" 
d="M477.78 772.328c12.6455 -26.3652 15.5811 -60.5576 8.72559 -101.638c-11.4941 -68.8008 -42.0752 -128.669 -67.4297 -173.142c-31.5752 -55.3867 -67.4131 -107.969 -102.061 -158.819c-63.6846 -93.4502 -123.835 -181.713 -162.47 -288.866
c-3.45508 -9.57422 -12.4814 -15.5371 -22.1113 -15.5371c-2.64844 0 -5.34375 0.454102 -7.97656 1.40234c-12.2148 4.40332 -18.5459 17.8721 -14.1426 30.0869c40.6562 112.756 105.319 207.64 167.844 299.397c34.1299 50.082 69.4277 101.88 100.079 155.629
c23.4268 41.0879 51.625 96.1299 61.8965 157.604c5.23438 31.333 3.64355 56.0762 -4.74023 73.541c-7.6709 15.999 -22.3066 26.9756 -39.1445 29.3652c-15.2236 2.1543 -32.5859 -1.81836 -53.1064 -12.1455c-36.2842 -18.2793 -68.2598 -48.7344 -92.4629 -88.0742
c-11.8154 -19.1885 -18.7422 -35.8301 -21.8057 -52.3857c-3.46289 -18.7256 -1.32422 -37.4199 5.71191 -49.9873c6.33887 -11.3223 2.30371 -25.6445 -9.02637 -31.9912c-11.3223 -6.34668 -25.6445 -2.30371 -31.9912 9.02637
c-12.4111 22.1738 -16.3994 51.8848 -10.9229 81.5098c4.09766 22.1348 13.2568 44.5273 27.9951 68.4795c28.7705 46.7598 67.2803 83.209 111.353 105.414c29.374 14.793 55.8096 20.2852 80.8584 16.7041c32.4297 -4.60742 60.4404 -25.3779 74.9277 -55.5742z
M110.646 -29.498c12.9824 -0.132812 23.3965 -10.7656 23.2715 -23.748c-0.0859375 -7.97656 -4.12891 -14.9736 -10.2402 -19.165c-10.0605 -22.6436 -19.502 -46.0078 -28.0732 -69.5059c-3.47852 -9.53516 -12.4893 -15.459 -22.0869 -15.459
c-2.67188 0 -5.39844 0.461914 -8.05469 1.43359c-12.1914 4.4502 -18.4756 17.9424 -14.0254 30.1416c9.19824 25.2295 19.3682 50.3174 30.2119 74.583c8.09375 18.123 20.418 21.7666 28.9971 21.7197z" />
    <glyph glyph-name="at" unicode="@" horiz-adv-x="861" 
d="M762.968 734.641c34.874 -54.0469 51.8516 -131.205 47.8086 -217.267c-5.8291 -124.266 -51.3125 -254.109 -135.188 -385.92c-33.2441 -52.2529 -79.4092 -116.76 -141.816 -152.183c-46.502 -26.4121 -75.8213 -12.3955 -89.165 -1.7002
c-19.6582 15.7568 -30.7998 43.8457 -33.1035 83.4834c-4.44238 76.377 16.5947 148.249 36.9346 217.763c4.41895 15.1143 8.90039 30.4316 13.1318 45.8516c-16.5869 -19.2119 -32.3047 -40.9072 -48.4766 -63.2295
c-31.9678 -44.1201 -65.0244 -89.7441 -108.713 -119.675c-28.7783 -19.752 -47.5039 -7.23926 -54.2109 -0.955078c-12.6221 11.8076 -16.1631 30.5967 -10.5215 55.8262c22.667 101.449 72.3887 192.157 139.998 255.402c12.2617 11.4707 49.5889 46.3525 92.3535 36.3389
c19.6426 -4.60742 37.5928 -21.2959 46.8379 -43.5479c6.37012 -15.3408 7.90625 -31.0498 4.67773 -45.2314c1.25391 -3.66699 1.60645 -7.66309 0.90918 -11.6436c-7.32617 -41.8867 -19.29 -82.7861 -30.8701 -122.338
c-20.0967 -68.6904 -39.0889 -133.573 -35.1162 -201.825c1.43359 -24.6963 7.10645 -42.7559 15.5684 -49.5332c9.43359 -7.56836 26.9531 0.455078 36.5586 5.90039c53.3887 30.3066 95.04 88.8818 125.354 136.535c79.4248 124.814 122.455 246.901 127.9 362.885
c3.58887 76.3613 -10.749 143.688 -40.3584 189.579c-33.1973 51.4453 -89.4697 80.9053 -149.965 78.6094c-51.8291 -1.89648 -106.495 -24.4775 -167.132 -69.0361c-134.584 -98.9111 -239.05 -263.246 -286.609 -450.867
c-20.8262 -82.1436 -27.2588 -153.945 -19.6748 -219.502c8.86914 -76.6279 38.3135 -142.671 80.7881 -181.188c38.2979 -34.7178 91.1064 -50.0664 148.703 -43.2031c55.0967 6.56543 109.582 31.6221 160.252 57.7207c11.5488 5.94727 25.7227 1.41113 31.6621 -10.1299
c5.94727 -11.541 1.41113 -25.7148 -10.1299 -31.6621c-54.5879 -28.1201 -113.712 -55.167 -176.213 -62.6104c-10.9062 -1.29297 -21.7031 -1.94336 -32.3115 -1.94336c-58.7949 0 -112.435 19.7285 -153.538 57.0078c-50.7949 46.0625 -85.7471 122.823 -95.9014 210.608
c-8.25781 71.3311 -1.45703 148.68 20.7949 236.457c50.1924 198.002 161.13 371.935 304.349 477.192c68.4795 50.3252 131.693 75.876 193.246 78.1328c77.6152 2.78125 148.915 -34.5928 191.186 -100.103zM375.032 289.026
c29.5459 40.7744 59.9863 82.7754 98.8564 112.432c0.533203 1.46484 1.23047 2.89844 2.07715 4.27734c3.03223 4.90527 2.82031 12.9834 -0.533203 21.0615c-3.7373 8.9873 -10.084 14.8555 -14.166 15.8115c-1.54395 0.360352 -3.1582 0.541016 -4.84277 0.541016
c-11.5879 0 -26.5762 -8.53223 -44.6602 -25.4482c-60.7773 -56.8516 -105.61 -139.003 -126.232 -231.316l-0.0703125 -0.304688c33.4248 25.4639 60.7617 63.1826 89.5713 102.946z" />
    <glyph glyph-name="A" unicode="A" horiz-adv-x="983" 
d="M945.893 861.111c44.5742 -52.2451 -0.188477 -245.469 -115.365 -668.089c16.5713 0.219727 31.2461 0.336914 43.5156 0.313477c12.9824 -0.03125 23.4814 -10.5693 23.458 -23.5518c-0.0234375 -12.9668 -10.5459 -23.458 -23.5049 -23.458
c-1.27734 0.03125 -2.45996 0 -3.69824 0c-14.8008 0 -32.5791 -0.171875 -52.6523 -0.477539c-0.336914 -1.24609 -0.658203 -2.4375 -1.00293 -3.68359c-57.9648 -211.737 -117.903 -430.675 -146.423 -589.392c-2.04492 -11.3691 -11.9482 -19.3535 -23.1055 -19.3613
c-1.37891 0 -2.77344 0.125 -4.18359 0.375977c-12.7715 2.2959 -21.2725 14.5107 -18.9766 27.29c28.457 158.364 87.2988 374.129 144.715 583.853c-96.6152 -2.07617 -226.091 -6.2207 -347.011 -10.5615c-101.583 -199.922 -191.844 -403.4 -239.85 -544.535
c-4.18359 -12.293 -17.5586 -18.874 -29.8203 -14.6826c-12.293 4.18359 -18.8662 17.5352 -14.6904 29.8203c46.7598 137.483 132.938 333.064 230.705 527.447c-153.13 -5.68066 -281.039 -11.2119 -291.64 -12.4424
c-0.916992 -0.109375 -1.83398 -0.15625 -2.74316 -0.15625c-11.7139 0 -21.9619 8.69727 -23.4346 20.5908c-1.59863 12.8105 7.29395 24.4854 20.0889 26.1855c10.9219 1.44922 155.449 7.63867 322.063 13.7031c37.5225 73.0859 76.3457 145.303 115.02 213.477
c81.1094 142.983 157.612 261.553 221.233 342.89c78.2578 100.055 136.191 144.582 182.098 139.661c13.8057 0.619141 26.248 -4.70898 35.2041 -15.2158zM888.492 608.74c37.8828 174.513 27.2441 212.638 22.6055 220.504
c-1.56738 -0.0703125 -3.20508 0.015625 -4.67773 0.250977c-41.5498 6.53418 -160.174 -109.881 -358.168 -458.905c-34.2393 -60.3545 -68.5889 -123.897 -102.021 -188.35c119.697 4.20703 244.425 8.09375 335.367 9.95117
c42.3018 154.635 81.54 299.758 106.895 416.549z" />
    <glyph glyph-name="A" unicode="&#xc5;" horiz-adv-x="983" 
d="M945.893 861.111c44.5742 -52.2451 -0.188477 -245.469 -115.365 -668.089c16.5713 0.219727 31.2461 0.336914 43.5156 0.313477c12.9824 -0.03125 23.4814 -10.5693 23.458 -23.5518c-0.0234375 -12.9668 -10.5459 -23.458 -23.5049 -23.458
c-1.27734 0.03125 -2.45996 0 -3.69824 0c-14.8008 0 -32.5791 -0.171875 -52.6523 -0.477539c-0.336914 -1.24609 -0.658203 -2.4375 -1.00293 -3.68359c-57.9648 -211.737 -117.903 -430.675 -146.423 -589.392c-2.04492 -11.3691 -11.9482 -19.3535 -23.1055 -19.3613
c-1.37891 0 -2.77344 0.125 -4.18359 0.375977c-12.7715 2.2959 -21.2725 14.5107 -18.9766 27.29c28.457 158.364 87.2988 374.129 144.715 583.853c-96.6152 -2.07617 -226.091 -6.2207 -347.011 -10.5615c-101.583 -199.922 -191.844 -403.4 -239.85 -544.535
c-4.18359 -12.293 -17.5586 -18.874 -29.8203 -14.6826c-12.293 4.18359 -18.8662 17.5352 -14.6904 29.8203c46.7598 137.483 132.938 333.064 230.705 527.447c-153.13 -5.68066 -281.039 -11.2119 -291.64 -12.4424
c-0.916992 -0.109375 -1.83398 -0.15625 -2.74316 -0.15625c-11.7139 0 -21.9619 8.69727 -23.4346 20.5908c-1.59863 12.8105 7.29395 24.4854 20.0889 26.1855c10.9219 1.44922 155.449 7.63867 322.063 13.7031c37.5225 73.0859 76.3457 145.303 115.02 213.477
c81.1094 142.983 157.612 261.553 221.233 342.89c78.2578 100.055 136.191 144.582 182.098 139.661c13.8057 0.619141 26.248 -4.70898 35.2041 -15.2158zM888.492 608.74c37.8828 174.513 27.2441 212.638 22.6055 220.504
c-1.56738 -0.0703125 -3.20508 0.015625 -4.67773 0.250977c-41.5498 6.53418 -160.174 -109.881 -358.168 -458.905c-34.2393 -60.3545 -68.5889 -123.897 -102.021 -188.35c119.697 4.20703 244.425 8.09375 335.367 9.95117
c42.3018 154.635 81.54 299.758 106.895 416.549z" />
    <glyph glyph-name="A" unicode="&#xc4;" horiz-adv-x="983" 
d="M945.893 861.111c44.5742 -52.2451 -0.188477 -245.469 -115.365 -668.089c16.5713 0.219727 31.2461 0.336914 43.5156 0.313477c12.9824 -0.03125 23.4814 -10.5693 23.458 -23.5518c-0.0234375 -12.9668 -10.5459 -23.458 -23.5049 -23.458
c-1.27734 0.03125 -2.45996 0 -3.69824 0c-14.8008 0 -32.5791 -0.171875 -52.6523 -0.477539c-0.336914 -1.24609 -0.658203 -2.4375 -1.00293 -3.68359c-57.9648 -211.737 -117.903 -430.675 -146.423 -589.392c-2.04492 -11.3691 -11.9482 -19.3535 -23.1055 -19.3613
c-1.37891 0 -2.77344 0.125 -4.18359 0.375977c-12.7715 2.2959 -21.2725 14.5107 -18.9766 27.29c28.457 158.364 87.2988 374.129 144.715 583.853c-96.6152 -2.07617 -226.091 -6.2207 -347.011 -10.5615c-101.583 -199.922 -191.844 -403.4 -239.85 -544.535
c-4.18359 -12.293 -17.5586 -18.874 -29.8203 -14.6826c-12.293 4.18359 -18.8662 17.5352 -14.6904 29.8203c46.7598 137.483 132.938 333.064 230.705 527.447c-153.13 -5.68066 -281.039 -11.2119 -291.64 -12.4424
c-0.916992 -0.109375 -1.83398 -0.15625 -2.74316 -0.15625c-11.7139 0 -21.9619 8.69727 -23.4346 20.5908c-1.59863 12.8105 7.29395 24.4854 20.0889 26.1855c10.9219 1.44922 155.449 7.63867 322.063 13.7031c37.5225 73.0859 76.3457 145.303 115.02 213.477
c81.1094 142.983 157.612 261.553 221.233 342.89c78.2578 100.055 136.191 144.582 182.098 139.661c13.8057 0.619141 26.248 -4.70898 35.2041 -15.2158zM888.492 608.74c37.8828 174.513 27.2441 212.638 22.6055 220.504
c-1.56738 -0.0703125 -3.20508 0.015625 -4.67773 0.250977c-41.5498 6.53418 -160.174 -109.881 -358.168 -458.905c-34.2393 -60.3545 -68.5889 -123.897 -102.021 -188.35c119.697 4.20703 244.425 8.09375 335.367 9.95117
c42.3018 154.635 81.54 299.758 106.895 416.549z" />
    <glyph glyph-name="A" unicode="&#xc3;" horiz-adv-x="983" 
d="M945.893 861.111c44.5742 -52.2451 -0.188477 -245.469 -115.365 -668.089c16.5713 0.219727 31.2461 0.336914 43.5156 0.313477c12.9824 -0.03125 23.4814 -10.5693 23.458 -23.5518c-0.0234375 -12.9668 -10.5459 -23.458 -23.5049 -23.458
c-1.27734 0.03125 -2.45996 0 -3.69824 0c-14.8008 0 -32.5791 -0.171875 -52.6523 -0.477539c-0.336914 -1.24609 -0.658203 -2.4375 -1.00293 -3.68359c-57.9648 -211.737 -117.903 -430.675 -146.423 -589.392c-2.04492 -11.3691 -11.9482 -19.3535 -23.1055 -19.3613
c-1.37891 0 -2.77344 0.125 -4.18359 0.375977c-12.7715 2.2959 -21.2725 14.5107 -18.9766 27.29c28.457 158.364 87.2988 374.129 144.715 583.853c-96.6152 -2.07617 -226.091 -6.2207 -347.011 -10.5615c-101.583 -199.922 -191.844 -403.4 -239.85 -544.535
c-4.18359 -12.293 -17.5586 -18.874 -29.8203 -14.6826c-12.293 4.18359 -18.8662 17.5352 -14.6904 29.8203c46.7598 137.483 132.938 333.064 230.705 527.447c-153.13 -5.68066 -281.039 -11.2119 -291.64 -12.4424
c-0.916992 -0.109375 -1.83398 -0.15625 -2.74316 -0.15625c-11.7139 0 -21.9619 8.69727 -23.4346 20.5908c-1.59863 12.8105 7.29395 24.4854 20.0889 26.1855c10.9219 1.44922 155.449 7.63867 322.063 13.7031c37.5225 73.0859 76.3457 145.303 115.02 213.477
c81.1094 142.983 157.612 261.553 221.233 342.89c78.2578 100.055 136.191 144.582 182.098 139.661c13.8057 0.619141 26.248 -4.70898 35.2041 -15.2158zM888.492 608.74c37.8828 174.513 27.2441 212.638 22.6055 220.504
c-1.56738 -0.0703125 -3.20508 0.015625 -4.67773 0.250977c-41.5498 6.53418 -160.174 -109.881 -358.168 -458.905c-34.2393 -60.3545 -68.5889 -123.897 -102.021 -188.35c119.697 4.20703 244.425 8.09375 335.367 9.95117
c42.3018 154.635 81.54 299.758 106.895 416.549z" />
    <glyph glyph-name="A" unicode="&#xc2;" horiz-adv-x="983" 
d="M945.893 861.111c44.5742 -52.2451 -0.188477 -245.469 -115.365 -668.089c16.5713 0.219727 31.2461 0.336914 43.5156 0.313477c12.9824 -0.03125 23.4814 -10.5693 23.458 -23.5518c-0.0234375 -12.9668 -10.5459 -23.458 -23.5049 -23.458
c-1.27734 0.03125 -2.45996 0 -3.69824 0c-14.8008 0 -32.5791 -0.171875 -52.6523 -0.477539c-0.336914 -1.24609 -0.658203 -2.4375 -1.00293 -3.68359c-57.9648 -211.737 -117.903 -430.675 -146.423 -589.392c-2.04492 -11.3691 -11.9482 -19.3535 -23.1055 -19.3613
c-1.37891 0 -2.77344 0.125 -4.18359 0.375977c-12.7715 2.2959 -21.2725 14.5107 -18.9766 27.29c28.457 158.364 87.2988 374.129 144.715 583.853c-96.6152 -2.07617 -226.091 -6.2207 -347.011 -10.5615c-101.583 -199.922 -191.844 -403.4 -239.85 -544.535
c-4.18359 -12.293 -17.5586 -18.874 -29.8203 -14.6826c-12.293 4.18359 -18.8662 17.5352 -14.6904 29.8203c46.7598 137.483 132.938 333.064 230.705 527.447c-153.13 -5.68066 -281.039 -11.2119 -291.64 -12.4424
c-0.916992 -0.109375 -1.83398 -0.15625 -2.74316 -0.15625c-11.7139 0 -21.9619 8.69727 -23.4346 20.5908c-1.59863 12.8105 7.29395 24.4854 20.0889 26.1855c10.9219 1.44922 155.449 7.63867 322.063 13.7031c37.5225 73.0859 76.3457 145.303 115.02 213.477
c81.1094 142.983 157.612 261.553 221.233 342.89c78.2578 100.055 136.191 144.582 182.098 139.661c13.8057 0.619141 26.248 -4.70898 35.2041 -15.2158zM888.492 608.74c37.8828 174.513 27.2441 212.638 22.6055 220.504
c-1.56738 -0.0703125 -3.20508 0.015625 -4.67773 0.250977c-41.5498 6.53418 -160.174 -109.881 -358.168 -458.905c-34.2393 -60.3545 -68.5889 -123.897 -102.021 -188.35c119.697 4.20703 244.425 8.09375 335.367 9.95117
c42.3018 154.635 81.54 299.758 106.895 416.549z" />
    <glyph glyph-name="A" unicode="&#xc1;" horiz-adv-x="983" 
d="M945.893 861.111c44.5742 -52.2451 -0.188477 -245.469 -115.365 -668.089c16.5713 0.219727 31.2461 0.336914 43.5156 0.313477c12.9824 -0.03125 23.4814 -10.5693 23.458 -23.5518c-0.0234375 -12.9668 -10.5459 -23.458 -23.5049 -23.458
c-1.27734 0.03125 -2.45996 0 -3.69824 0c-14.8008 0 -32.5791 -0.171875 -52.6523 -0.477539c-0.336914 -1.24609 -0.658203 -2.4375 -1.00293 -3.68359c-57.9648 -211.737 -117.903 -430.675 -146.423 -589.392c-2.04492 -11.3691 -11.9482 -19.3535 -23.1055 -19.3613
c-1.37891 0 -2.77344 0.125 -4.18359 0.375977c-12.7715 2.2959 -21.2725 14.5107 -18.9766 27.29c28.457 158.364 87.2988 374.129 144.715 583.853c-96.6152 -2.07617 -226.091 -6.2207 -347.011 -10.5615c-101.583 -199.922 -191.844 -403.4 -239.85 -544.535
c-4.18359 -12.293 -17.5586 -18.874 -29.8203 -14.6826c-12.293 4.18359 -18.8662 17.5352 -14.6904 29.8203c46.7598 137.483 132.938 333.064 230.705 527.447c-153.13 -5.68066 -281.039 -11.2119 -291.64 -12.4424
c-0.916992 -0.109375 -1.83398 -0.15625 -2.74316 -0.15625c-11.7139 0 -21.9619 8.69727 -23.4346 20.5908c-1.59863 12.8105 7.29395 24.4854 20.0889 26.1855c10.9219 1.44922 155.449 7.63867 322.063 13.7031c37.5225 73.0859 76.3457 145.303 115.02 213.477
c81.1094 142.983 157.612 261.553 221.233 342.89c78.2578 100.055 136.191 144.582 182.098 139.661c13.8057 0.619141 26.248 -4.70898 35.2041 -15.2158zM888.492 608.74c37.8828 174.513 27.2441 212.638 22.6055 220.504
c-1.56738 -0.0703125 -3.20508 0.015625 -4.67773 0.250977c-41.5498 6.53418 -160.174 -109.881 -358.168 -458.905c-34.2393 -60.3545 -68.5889 -123.897 -102.021 -188.35c119.697 4.20703 244.425 8.09375 335.367 9.95117
c42.3018 154.635 81.54 299.758 106.895 416.549z" />
    <glyph glyph-name="B" unicode="B" horiz-adv-x="1162" 
d="M1097.66 799.824c-77.0898 -145.35 -205.815 -229.523 -324.165 -293.678l58.4111 -5.86816c81.9482 -8.23438 163.528 -27.0312 205.267 -108.188c46.7207 -90.8643 7.51367 -203.55 -11.5098 -247.787c-4.03516 -9.36328 -8.25879 -18.624 -12.7012 -27.8066
c9.9668 0.266602 19.6904 -6.20508 22.9268 -16.3906c3.93359 -12.3799 -2.91406 -25.5977 -15.2861 -29.5234c-10.3271 -3.2832 -23.4277 -7.16113 -38.8477 -11.541c-45.334 -74.873 -106.08 -143.869 -183.898 -209.104
c-143.587 -120.363 -298.738 -187.361 -448.884 -195.831c-21.124 -53.0752 -41.9971 -106.111 -62.7598 -158.857c-3.6123 -9.1748 -12.4268 -14.8945 -21.8682 -14.9023c-2.10742 0 -4.23828 0.290039 -6.36133 0.87793
c-11.6191 3.26758 -18.874 14.7773 -16.8057 26.6709c8.60254 49.3379 17.9346 98.4248 27.9014 147.309c-22.3223 1.9043 -44.4492 5.16406 -66.3564 9.79492c-32.3828 6.85547 -80.2012 19.8145 -121.555 53.1455c-10.0605 8.10938 -22.3457 19.7207 -28.0576 37.6475
c-11.5957 36.3398 11.291 70.5166 34.4199 88.7412c32.2578 25.417 69.749 38.8701 99.875 49.6826c29.7578 10.6797 81.7285 25.8252 146.36 43.4854c68.0322 269.96 150.614 533.269 231.395 790.826c3.87793 12.3799 17.0723 19.29 29.46 15.3877
c12.3799 -3.87793 19.2744 -17.0723 15.3877 -29.46c-77.999 -248.695 -157.69 -502.789 -224.172 -762.688c12.5986 3.36133 25.542 6.80078 38.7285 10.2793c75.6797 176.745 157.361 350.317 250.757 513.438c-2.51465 3.00098 -4.30078 6.64453 -5.06836 10.6875
c-1.95117 10.2168 3.04785 20.5039 12.2852 25.2832c6.49512 3.36133 13.0684 6.76172 19.7129 10.209c9.51953 16.0303 19.1572 31.9434 28.9277 47.7393c69.2236 111.964 128.104 190.119 190.903 253.427c31.2939 31.5439 73.792 69.4346 125.12 82.5898
c6.87891 1.7627 25.1348 6.44824 42.1055 -4.44238c30.3691 -19.4863 27.1885 -65.6357 8.35254 -101.152zM278.738 -298.392c13.1006 61.5918 27.1709 122.825 42.0342 183.728c-51.6025 -14.3223 -93.0742 -26.6152 -117.496 -35.375
c-34.2314 -12.2773 -62.3438 -23.1992 -86.6484 -42.3564c-11.8232 -9.30859 -22.7217 -25.0264 -18.7334 -37.5312c1.51172 -4.74805 5.33496 -9.33203 12.7705 -15.3262c25.8486 -20.834 57.2363 -34.334 101.779 -43.7598
c21.8369 -4.61523 43.9639 -7.7334 66.2939 -9.37891zM338.268 -246.152c20.6611 51.2031 41.6367 102.397 63.0576 153.357c-9.73926 -2.60156 -19.2979 -5.16406 -28.6377 -7.67871c-11.9961 -48.3506 -23.498 -96.9131 -34.4199 -145.679zM767.643 -114.029
c58.458 49.0088 106.66 100.086 145.382 154.25c-66.2852 -17.7314 -150.693 -39.4189 -237.945 -61.835c-71.543 -18.3887 -146.722 -37.7021 -216.298 -55.9736c-30.957 -72.8516 -60.9736 -146.267 -90.3867 -219.635c133.205 12.9902 270.728 75.4521 399.248 183.193z
M827.197 453.502l-104.256 10.4756c-89.2109 -154.36 -167.79 -318.812 -240.657 -486.806c58.3018 15.1924 120.012 31.0508 181.095 46.7441c111.228 28.583 217.81 55.959 287.394 75.2725c11.7842 20.7471 22.3379 41.9727 31.6855 63.6992
c16.3916 38.1025 50.459 134.64 12.8896 207.702c-29.7109 57.7764 -88.71 74.9355 -168.15 82.9121zM784.572 566.14c102.539 58.6699 207.655 135.227 271.551 255.716c8.92383 16.8145 10.1465 34.0674 7.96094 39.0273
c-0.924805 -0.0703125 -2.54688 -0.321289 -5.21875 -1.00293c-40.1865 -10.2949 -76.3691 -42.8975 -103.408 -70.1562c-56.1387 -56.5938 -109.379 -126.17 -170.885 -223.584z" />
    <glyph glyph-name="C" unicode="C" horiz-adv-x="770" 
d="M676.551 753.746c6.77734 18.1543 13.7822 36.9336 15.3105 55.7695c1.39453 17.0576 -2.63281 33.4092 -10.0293 40.6885c-2.14648 2.12305 -8.71973 8.58691 -31.1748 3.81543c-42.4043 -9.00293 -85.5215 -36.3945 -135.698 -86.21
c-127.086 -126.162 -214.487 -304.224 -276.432 -445.257c-46.8936 -106.785 -104.263 -249.087 -131.74 -402.898c-7.64746 -42.7959 -14.3389 -93.0273 -5.99414 -141.127c7.92871 -45.7334 30.6504 -83.3887 57.8701 -95.9326
c24.2422 -11.1807 54.5254 -5.7041 98.1748 17.707c161.185 86.4688 291.687 256.1 406.832 405.767c7.91309 10.2949 22.6748 12.2227 32.9619 4.30176c10.2949 -7.91309 12.2148 -22.6748 4.30176 -32.9619c-118.028 -153.42 -251.798 -327.298 -421.876 -418.53
c-25.1582 -13.4922 -58.9746 -28.7783 -94.2959 -28.7783c-15.1689 0 -30.6045 2.8125 -45.7734 9.80176c-41.4639 19.1104 -73.8545 69.1533 -84.5186 130.597c-9.64551 55.6064 -1.83398 113.344 6.04004 157.425c28.3555 158.701 87.0332 304.372 134.984 413.547
c63.6133 144.825 153.647 327.972 286.344 459.704c56.875 56.4678 107.42 87.8711 159.054 98.832c31.3018 6.66016 56.1631 1.16016 73.918 -16.2969c17.5586 -17.2764 26.498 -46.4463 23.9121 -78.0303c-2.06836 -25.3154 -10.6006 -48.1865 -18.1299 -68.3623
l-171.512 -459.5c-4.53613 -12.168 -18.083 -18.3262 -30.2354 -13.8057c-12.168 4.53613 -18.3496 18.0752 -13.8057 30.2354z" />
    <glyph glyph-name="D" unicode="D" horiz-adv-x="978" 
d="M207.14 -266.328c-70.0459 2.52246 -123.426 32.8457 -150.309 85.3809c-11.4316 22.3223 -8.50098 50.999 8.69727 85.2148c19.6582 39.1289 58.8887 87.1738 110.75 139.661c-2.87598 4.87305 -4.0752 10.749 -2.82129 16.7197
c14.4951 68.9805 28.5283 139.779 43.3838 214.73c33.6836 169.96 68.5107 345.718 108.682 496.396c3.3457 12.5439 16.2109 19.9951 28.7705 16.6572c12.5439 -3.3457 20.0029 -16.2266 16.6572 -28.7705c-39.7793 -149.205 -74.458 -324.195 -108 -493.427
c-1.36328 -6.89453 -2.6875 -13.5781 -4.04297 -20.4023c1.24609 2.69531 2.48438 5.375 3.73828 8.09375c135.446 293.332 340.062 736.669 580.93 661.287c32.5312 -10.1777 62.5088 -31.6621 86.6807 -62.125c52.0566 -65.6035 59.8213 -154.83 46.7598 -245.122
c12.6143 4.52051 23.623 7.62305 32.79 9.15918c12.834 2.17773 24.9238 -6.48828 27.0703 -19.291s-6.48828 -24.9238 -19.291 -27.0703c-12.998 -2.18555 -30.1338 -7.88184 -50.6465 -16.5869c-37.4131 -164.593 -129.107 -317.652 -130.636 -320.175
c-100.894 -166.285 -216.995 -300.368 -335.745 -387.746c-99.1699 -72.9688 -199.546 -112.748 -283.954 -112.756c-3.18066 0 -6.33008 0.0546875 -9.46387 0.171875zM305.323 234.206c-21.249 -46.0312 -40.6729 -88.1006 -57.7139 -122.324
c202.146 182.99 510.577 394.258 677.16 473.816c17.6211 90.9971 15.2236 179.472 -31.3486 238.157c-18.2949 23.0586 -40.3818 39.1289 -63.8877 46.4785c-13.2646 4.15234 -26.5371 6.12695 -39.7783 6.12695c-187.887 0 -371.645 -397.986 -484.432 -642.255z
M107.532 -116.857c-9.66895 -19.2432 -12.8965 -34.7949 -8.86133 -42.6846c18.7812 -36.6846 57.9023 -57.9258 110.163 -59.8145c134.231 -4.9209 368.604 117.347 587.268 477.732c30.8936 50.9053 84.1182 157.463 114.902 269.043
c-239.004 -124.367 -720.066 -478.32 -803.472 -644.276z" />
    <glyph glyph-name="E" unicode="E" horiz-adv-x="771" 
d="M226.807 -177.83c-24.9863 60.3623 -17.7012 130.682 -7.25684 191.514c17.5508 102.382 44.7549 201.685 74.8184 298.566c-48.2334 -21.75 -95.4248 -47.332 -141.308 -76.792c-3.93359 -2.52246 -8.3291 -3.72949 -12.6777 -3.72949
c-7.7334 0 -15.3096 3.81543 -19.7988 10.8125c-7.0127 10.9219 -3.84766 25.4639 7.08203 32.4766c56.0449 35.9873 113.986 66.4736 173.393 91.4287c10.8281 65.2119 2.18555 112.614 -25.7627 140.97c-33.8477 34.3418 -96.96 43.4072 -187.573 26.9688
c-11.3301 -2.06836 -26.8594 -4.87305 -35.0703 10.8369c-4.77148 9.12012 -2.97754 20.4658 4.30957 27.7295c119.039 118.694 258.842 217.08 411.071 290.433c-6.05664 8.30566 -6.16602 19.917 0.517578 28.3789c5.5791 7.0752 13.9004 11.2354 22.8242 11.416
c9.12793 0.109375 17.3467 -3.60449 23.1836 -10.4053c1.61426 -1.87305 2.8291 -4.00391 3.76953 -6.24512c44.6133 19.5254 90.1357 37.0449 136.48 52.1904c66.5596 21.7422 145.522 42.8896 226.601 34.9688c46.0938 -4.5127 63.2764 -28.2217 69.5684 -47.3164
c7.1377 -21.6641 3.39258 -46.4854 -11.4473 -75.875c-5.84473 -11.5801 -19.9951 -16.2344 -31.5752 -10.3896c-11.5879 5.85254 -16.2422 19.9873 -10.3896 31.5752c8.80664 17.4492 11.7529 30.8945 8.76758 39.9756c-1.04199 3.14941 -4.20703 12.7549 -29.5068 15.2305
c-72.4355 7.12207 -145.506 -12.6377 -207.427 -32.8604c-53.0049 -17.3232 -104.921 -37.7812 -155.544 -60.9971c-3.33008 -13.3594 -7.51367 -26.0527 -11.4473 -37.9619l-114.174 -345.397c-6.27637 -18.9844 -12.5762 -38.0625 -18.8525 -57.2275
c42.5137 14.5342 85.6699 26.3496 129.374 35.2422c12.7324 2.55469 25.1279 -5.625 27.7217 -18.3496c2.58594 -12.7168 -5.625 -25.1279 -18.3496 -27.7217c-53.2402 -10.8359 -105.673 -26.1377 -157.048 -45.7334c-34.208 -107.248 -65.8467 -217.215 -85.1992 -330.143
c-9.29297 -54.2119 -16.0391 -116.282 4.37109 -165.589c6.88672 -16.6416 16.0303 -28.9824 25.7617 -34.7725c16.6885 -9.93457 41.0479 -3.29004 74.457 20.3018c41.8711 29.5703 82.1045 66.4502 121.014 102.116c55.8799 51.2266 113.656 104.185 179.628 139.239
c11.4551 6.08789 25.6992 1.73145 31.7871 -9.73145s1.73145 -25.6992 -9.73145 -31.7871c-60.6914 -32.2412 -113.751 -80.8818 -169.929 -132.374c-39.9902 -36.6611 -81.3438 -74.5674 -125.659 -105.861c-13.5469 -9.56641 -47.4258 -33.4951 -84.6816 -33.4951
c-13.4688 0 -27.3838 3.13379 -40.9385 11.1963c-23.5605 14.0254 -37.5615 38.8389 -45.1533 57.1885zM141.559 588.432c75.0762 4.5918 131.152 -11.4307 167.218 -48.0127c17.9971 -18.2715 30.4629 -41.0879 37.3574 -68.2998l110.107 333.088
c-113.923 -58.3408 -220.081 -131.364 -314.683 -216.775z" />
    <glyph glyph-name="E" unicode="&#xcb;" horiz-adv-x="771" 
d="M226.807 -177.83c-24.9863 60.3623 -17.7012 130.682 -7.25684 191.514c17.5508 102.382 44.7549 201.685 74.8184 298.566c-48.2334 -21.75 -95.4248 -47.332 -141.308 -76.792c-3.93359 -2.52246 -8.3291 -3.72949 -12.6777 -3.72949
c-7.7334 0 -15.3096 3.81543 -19.7988 10.8125c-7.0127 10.9219 -3.84766 25.4639 7.08203 32.4766c56.0449 35.9873 113.986 66.4736 173.393 91.4287c10.8281 65.2119 2.18555 112.614 -25.7627 140.97c-33.8477 34.3418 -96.96 43.4072 -187.573 26.9688
c-11.3301 -2.06836 -26.8594 -4.87305 -35.0703 10.8369c-4.77148 9.12012 -2.97754 20.4658 4.30957 27.7295c119.039 118.694 258.842 217.08 411.071 290.433c-6.05664 8.30566 -6.16602 19.917 0.517578 28.3789c5.5791 7.0752 13.9004 11.2354 22.8242 11.416
c9.12793 0.109375 17.3467 -3.60449 23.1836 -10.4053c1.61426 -1.87305 2.8291 -4.00391 3.76953 -6.24512c44.6133 19.5254 90.1357 37.0449 136.48 52.1904c66.5596 21.7422 145.522 42.8896 226.601 34.9688c46.0938 -4.5127 63.2764 -28.2217 69.5684 -47.3164
c7.1377 -21.6641 3.39258 -46.4854 -11.4473 -75.875c-5.84473 -11.5801 -19.9951 -16.2344 -31.5752 -10.3896c-11.5879 5.85254 -16.2422 19.9873 -10.3896 31.5752c8.80664 17.4492 11.7529 30.8945 8.76758 39.9756c-1.04199 3.14941 -4.20703 12.7549 -29.5068 15.2305
c-72.4355 7.12207 -145.506 -12.6377 -207.427 -32.8604c-53.0049 -17.3232 -104.921 -37.7812 -155.544 -60.9971c-3.33008 -13.3594 -7.51367 -26.0527 -11.4473 -37.9619l-114.174 -345.397c-6.27637 -18.9844 -12.5762 -38.0625 -18.8525 -57.2275
c42.5137 14.5342 85.6699 26.3496 129.374 35.2422c12.7324 2.55469 25.1279 -5.625 27.7217 -18.3496c2.58594 -12.7168 -5.625 -25.1279 -18.3496 -27.7217c-53.2402 -10.8359 -105.673 -26.1377 -157.048 -45.7334c-34.208 -107.248 -65.8467 -217.215 -85.1992 -330.143
c-9.29297 -54.2119 -16.0391 -116.282 4.37109 -165.589c6.88672 -16.6416 16.0303 -28.9824 25.7617 -34.7725c16.6885 -9.93457 41.0479 -3.29004 74.457 20.3018c41.8711 29.5703 82.1045 66.4502 121.014 102.116c55.8799 51.2266 113.656 104.185 179.628 139.239
c11.4551 6.08789 25.6992 1.73145 31.7871 -9.73145s1.73145 -25.6992 -9.73145 -31.7871c-60.6914 -32.2412 -113.751 -80.8818 -169.929 -132.374c-39.9902 -36.6611 -81.3438 -74.5674 -125.659 -105.861c-13.5469 -9.56641 -47.4258 -33.4951 -84.6816 -33.4951
c-13.4688 0 -27.3838 3.13379 -40.9385 11.1963c-23.5605 14.0254 -37.5615 38.8389 -45.1533 57.1885zM141.559 588.432c75.0762 4.5918 131.152 -11.4307 167.218 -48.0127c17.9971 -18.2715 30.4629 -41.0879 37.3574 -68.2998l110.107 333.088
c-113.923 -58.3408 -220.081 -131.364 -314.683 -216.775z" />
    <glyph glyph-name="E" unicode="&#xca;" horiz-adv-x="771" 
d="M226.807 -177.83c-24.9863 60.3623 -17.7012 130.682 -7.25684 191.514c17.5508 102.382 44.7549 201.685 74.8184 298.566c-48.2334 -21.75 -95.4248 -47.332 -141.308 -76.792c-3.93359 -2.52246 -8.3291 -3.72949 -12.6777 -3.72949
c-7.7334 0 -15.3096 3.81543 -19.7988 10.8125c-7.0127 10.9219 -3.84766 25.4639 7.08203 32.4766c56.0449 35.9873 113.986 66.4736 173.393 91.4287c10.8281 65.2119 2.18555 112.614 -25.7627 140.97c-33.8477 34.3418 -96.96 43.4072 -187.573 26.9688
c-11.3301 -2.06836 -26.8594 -4.87305 -35.0703 10.8369c-4.77148 9.12012 -2.97754 20.4658 4.30957 27.7295c119.039 118.694 258.842 217.08 411.071 290.433c-6.05664 8.30566 -6.16602 19.917 0.517578 28.3789c5.5791 7.0752 13.9004 11.2354 22.8242 11.416
c9.12793 0.109375 17.3467 -3.60449 23.1836 -10.4053c1.61426 -1.87305 2.8291 -4.00391 3.76953 -6.24512c44.6133 19.5254 90.1357 37.0449 136.48 52.1904c66.5596 21.7422 145.522 42.8896 226.601 34.9688c46.0938 -4.5127 63.2764 -28.2217 69.5684 -47.3164
c7.1377 -21.6641 3.39258 -46.4854 -11.4473 -75.875c-5.84473 -11.5801 -19.9951 -16.2344 -31.5752 -10.3896c-11.5879 5.85254 -16.2422 19.9873 -10.3896 31.5752c8.80664 17.4492 11.7529 30.8945 8.76758 39.9756c-1.04199 3.14941 -4.20703 12.7549 -29.5068 15.2305
c-72.4355 7.12207 -145.506 -12.6377 -207.427 -32.8604c-53.0049 -17.3232 -104.921 -37.7812 -155.544 -60.9971c-3.33008 -13.3594 -7.51367 -26.0527 -11.4473 -37.9619l-114.174 -345.397c-6.27637 -18.9844 -12.5762 -38.0625 -18.8525 -57.2275
c42.5137 14.5342 85.6699 26.3496 129.374 35.2422c12.7324 2.55469 25.1279 -5.625 27.7217 -18.3496c2.58594 -12.7168 -5.625 -25.1279 -18.3496 -27.7217c-53.2402 -10.8359 -105.673 -26.1377 -157.048 -45.7334c-34.208 -107.248 -65.8467 -217.215 -85.1992 -330.143
c-9.29297 -54.2119 -16.0391 -116.282 4.37109 -165.589c6.88672 -16.6416 16.0303 -28.9824 25.7617 -34.7725c16.6885 -9.93457 41.0479 -3.29004 74.457 20.3018c41.8711 29.5703 82.1045 66.4502 121.014 102.116c55.8799 51.2266 113.656 104.185 179.628 139.239
c11.4551 6.08789 25.6992 1.73145 31.7871 -9.73145s1.73145 -25.6992 -9.73145 -31.7871c-60.6914 -32.2412 -113.751 -80.8818 -169.929 -132.374c-39.9902 -36.6611 -81.3438 -74.5674 -125.659 -105.861c-13.5469 -9.56641 -47.4258 -33.4951 -84.6816 -33.4951
c-13.4688 0 -27.3838 3.13379 -40.9385 11.1963c-23.5605 14.0254 -37.5615 38.8389 -45.1533 57.1885zM141.559 588.432c75.0762 4.5918 131.152 -11.4307 167.218 -48.0127c17.9971 -18.2715 30.4629 -41.0879 37.3574 -68.2998l110.107 333.088
c-113.923 -58.3408 -220.081 -131.364 -314.683 -216.775z" />
    <glyph glyph-name="E" unicode="&#xc9;" horiz-adv-x="771" 
d="M226.807 -177.83c-24.9863 60.3623 -17.7012 130.682 -7.25684 191.514c17.5508 102.382 44.7549 201.685 74.8184 298.566c-48.2334 -21.75 -95.4248 -47.332 -141.308 -76.792c-3.93359 -2.52246 -8.3291 -3.72949 -12.6777 -3.72949
c-7.7334 0 -15.3096 3.81543 -19.7988 10.8125c-7.0127 10.9219 -3.84766 25.4639 7.08203 32.4766c56.0449 35.9873 113.986 66.4736 173.393 91.4287c10.8281 65.2119 2.18555 112.614 -25.7627 140.97c-33.8477 34.3418 -96.96 43.4072 -187.573 26.9688
c-11.3301 -2.06836 -26.8594 -4.87305 -35.0703 10.8369c-4.77148 9.12012 -2.97754 20.4658 4.30957 27.7295c119.039 118.694 258.842 217.08 411.071 290.433c-6.05664 8.30566 -6.16602 19.917 0.517578 28.3789c5.5791 7.0752 13.9004 11.2354 22.8242 11.416
c9.12793 0.109375 17.3467 -3.60449 23.1836 -10.4053c1.61426 -1.87305 2.8291 -4.00391 3.76953 -6.24512c44.6133 19.5254 90.1357 37.0449 136.48 52.1904c66.5596 21.7422 145.522 42.8896 226.601 34.9688c46.0938 -4.5127 63.2764 -28.2217 69.5684 -47.3164
c7.1377 -21.6641 3.39258 -46.4854 -11.4473 -75.875c-5.84473 -11.5801 -19.9951 -16.2344 -31.5752 -10.3896c-11.5879 5.85254 -16.2422 19.9873 -10.3896 31.5752c8.80664 17.4492 11.7529 30.8945 8.76758 39.9756c-1.04199 3.14941 -4.20703 12.7549 -29.5068 15.2305
c-72.4355 7.12207 -145.506 -12.6377 -207.427 -32.8604c-53.0049 -17.3232 -104.921 -37.7812 -155.544 -60.9971c-3.33008 -13.3594 -7.51367 -26.0527 -11.4473 -37.9619l-114.174 -345.397c-6.27637 -18.9844 -12.5762 -38.0625 -18.8525 -57.2275
c42.5137 14.5342 85.6699 26.3496 129.374 35.2422c12.7324 2.55469 25.1279 -5.625 27.7217 -18.3496c2.58594 -12.7168 -5.625 -25.1279 -18.3496 -27.7217c-53.2402 -10.8359 -105.673 -26.1377 -157.048 -45.7334c-34.208 -107.248 -65.8467 -217.215 -85.1992 -330.143
c-9.29297 -54.2119 -16.0391 -116.282 4.37109 -165.589c6.88672 -16.6416 16.0303 -28.9824 25.7617 -34.7725c16.6885 -9.93457 41.0479 -3.29004 74.457 20.3018c41.8711 29.5703 82.1045 66.4502 121.014 102.116c55.8799 51.2266 113.656 104.185 179.628 139.239
c11.4551 6.08789 25.6992 1.73145 31.7871 -9.73145s1.73145 -25.6992 -9.73145 -31.7871c-60.6914 -32.2412 -113.751 -80.8818 -169.929 -132.374c-39.9902 -36.6611 -81.3438 -74.5674 -125.659 -105.861c-13.5469 -9.56641 -47.4258 -33.4951 -84.6816 -33.4951
c-13.4688 0 -27.3838 3.13379 -40.9385 11.1963c-23.5605 14.0254 -37.5615 38.8389 -45.1533 57.1885zM141.559 588.432c75.0762 4.5918 131.152 -11.4307 167.218 -48.0127c17.9971 -18.2715 30.4629 -41.0879 37.3574 -68.2998l110.107 333.088
c-113.923 -58.3408 -220.081 -131.364 -314.683 -216.775z" />
    <glyph glyph-name="F" unicode="F" horiz-adv-x="708" 
d="M1044.68 931.965c14.2988 14.7852 29.0977 30.084 37.3477 49.2334c7.78809 18.0205 8.08594 39.8184 0.712891 51.8301c-5.48438 8.93945 -15.7402 14.0713 -34.2705 17.166c-69.8115 11.6748 -142.498 -4.31641 -198.01 -19.54
c-51.8691 -14.2285 -103.119 -31.9121 -153.641 -52.2832c-50.8027 -180.655 -102.483 -364.037 -156.766 -547.098c46.3447 10.1934 88.333 11.251 128.042 3.39258c12.7324 -2.51465 21.0146 -14.8789 18.5 -27.6113s-14.8945 -21.0059 -27.6113 -18.499
c-40.2021 7.92871 -84.001 4.88086 -134.538 -9.71582c-57.9092 -193.372 -118.93 -386.046 -185.215 -574.419c-14.9414 -42.4746 -29.624 -79.7227 -57.9795 -105.359c-4.42676 -3.98828 -10.0762 -6.06445 -15.7725 -6.06445
c-3.82324 0 -7.66992 0.932617 -11.1875 2.83691c-8.75977 4.74023 -13.5781 14.4951 -12.0186 24.3359c22.2676 140.696 60.6523 277.976 97.7676 410.727c17.7148 63.3711 35.6885 127.745 52.0244 192.895c-7.6709 -3.7998 -15.3027 -7.60742 -22.8555 -11.3916
c-43.1562 -21.6094 -87.7773 -43.9551 -133.935 -60.2754c-2.59375 -0.90918 -5.23438 -1.34766 -7.83594 -1.34766c-9.68457 0 -18.75 6.0332 -22.166 15.6787c-4.3252 12.2383 2.0918 25.6758 14.3301 30.001c43.3906 15.3408 86.6875 37.0205 128.559 57.9873
c19.0156 9.51953 38.4941 19.2432 58.168 28.5117c13.4922 58.3799 25.2451 117.332 33.8242 176.723c7.44336 51.5479 12.4736 115.866 -14.9961 155.967c-19.8545 28.9902 -54.9951 40.9775 -104.349 35.6416c-23.5137 -2.53906 -46.8467 -7.75684 -69.6865 -15.4746
c-56.374 -36.6055 -111.251 -73.6113 -164.468 -109.504c-9.90332 -6.68359 -23.2471 -4.87402 -31.0117 4.21484c-7.76465 9.08105 -7.48242 22.542 0.658203 31.2861c50.2236 53.9844 110.123 93.8262 173.964 116.524c134.851 87.417 278.398 172.538 429.123 235.517
c5.19434 7.3418 14.2754 11.1885 23.333 9.54297c50.999 20.418 102.773 38.1963 155.324 52.6055c60.1738 16.501 139.34 33.7305 218.192 20.5674c20.418 -3.4082 49.5332 -11.1572 66.5908 -38.9404c18.8281 -30.667 13.0459 -70.3838 2.38184 -95.0723
c-11.6748 -27.0234 -30.2988 -46.2822 -46.7373 -63.2686c-9.02637 -9.33203 -23.9131 -9.58301 -33.2373 -0.556641c-9.33203 9.02637 -9.58301 23.9053 -0.556641 33.2373zM339.287 -50.9814c45.5693 135.407 88.6543 272.702 130.204 410.483
c-6.33105 -2.58594 -12.7246 -5.26562 -19.2666 -8.14941c-1.12012 -0.493164 -2.24023 -1.02637 -3.36035 -1.52734c-18.7734 -78.5234 -40.3359 -155.755 -61.5381 -231.575c-15.5605 -55.6768 -31.3486 -112.137 -46.0391 -169.231zM486.462 416.064
c52.4482 175.938 102.476 352.374 151.484 526.55c-0.956055 3.33008 -1.18359 6.8877 -0.572266 10.4375c-98.3779 -44.0488 -193.904 -97.3047 -285.873 -153.749c49.5967 -2.0918 88.0674 -21.499 112.45 -57.1094c36.6533 -53.5059 31.4033 -129.24 22.7373 -189.242
c-7.12988 -49.377 -16.375 -98.2842 -26.9287 -146.729c9.06543 3.56543 17.9658 6.84863 26.7021 9.8418z" />
    <glyph glyph-name="G" unicode="G" horiz-adv-x="769" 
d="M719.632 522.789c-25.0254 -128.975 -74.0703 -286.211 -134.879 -424.643c-67.1865 -152.981 -207.13 -414.096 -389.485 -444.011c-7.74121 -1.26953 -15.4121 -1.89648 -22.9258 -1.89648c-37.46 0 -71.3701 15.459 -93.5674 43.4463
c-21.8291 27.5488 -31.9912 68.5654 -27.8857 112.528c3.80762 40.751 18.6631 76.8242 31.1836 103.691c61.3652 131.725 192.839 260.997 594.077 634.647c23.1611 127.353 13.877 186.272 3.91895 194.656c-11.8545 1.38672 -26.2402 -6.10352 -43.8926 -22.7998
c-52.5186 -49.6904 -99.0205 -113.79 -143.986 -175.79c-70.0303 -96.5449 -142.442 -196.373 -241.659 -248.438c-19.9092 -10.4443 -50.2549 -24.0068 -83.5312 -21.46c-34.5293 2.65625 -65.5879 23.7559 -81.0703 55.0576
c-11.2822 22.8008 -15.3643 50.8975 -12.8496 88.4121c4.79492 71.6836 27.6191 138.368 51.5713 199.749c72.7891 186.539 270.368 483.335 426.812 542.937c39.7168 15.1377 75.4766 14.8555 106.269 -0.822266c24.0771 -12.2539 43.5869 -39.7314 50.9287 -71.7148
c6.91016 -30.1338 1.91895 -59.2334 -13.7119 -79.832c-7.83496 -10.3428 -22.5811 -12.3721 -32.9316 -4.52148c-10.3428 7.84277 -12.3643 22.5889 -4.52148 32.9316c7.08301 9.33984 9.08105 24.626 5.34375 40.9072c-4.17578 18.2012 -14.7998 34.4121 -26.4346 40.3359
c-18.7256 9.52734 -41.04 9.12793 -68.2041 -1.21484c-142.247 -54.1875 -331.771 -341.863 -399.749 -516.094c-22.5889 -57.8779 -44.0967 -120.449 -48.4688 -185.794c-1.9043 -28.5039 0.736328 -49.5723 8.08594 -64.4277
c8.29004 -16.7676 24.1953 -27.6191 42.5449 -29.0293c16.0859 -1.23828 34.6084 3.90918 58.0742 16.2178c89.4619 46.9404 155.513 138.001 225.441 234.404c46.2354 63.7393 94.0381 129.641 149.738 182.332c28.9902 27.4307 56.249 38.9092 83.2803 35.1328
c32.7822 -4.5918 49.7842 -39.2393 50.5361 -102.979c0.297852 -25.1582 -1.70801 -54.2578 -5.7666 -86.2646c25.2998 23.5215 51.54 47.9121 78.8379 73.29c9.50391 8.83008 24.3828 8.29688 33.2207 -1.21484s8.28906 -24.3828 -1.21484 -33.2207
c-43.6416 -40.5703 -84.6035 -78.6494 -123.129 -114.511zM187.651 -299.503c195.722 32.1084 388.905 418.365 471.582 766.011c-357.988 -333.989 -479.214 -455.685 -534.554 -574.474c-10.9219 -23.4346 -23.8574 -54.6494 -26.9912 -88.2227
c-2.89941 -31.0898 3.96387 -61.334 17.918 -78.9473c15.8896 -20.042 42.8193 -29.1465 72.0449 -24.3672z" />
    <glyph glyph-name="H" unicode="H" horiz-adv-x="888" 
d="M641.346 -230.239c-12.7715 2.31152 -21.2578 14.5352 -18.9463 27.3066c34.2627 189.626 74.6211 378.069 120.731 564.326c-139.442 -20.4893 -276.456 -57.3848 -409.834 -110.146c-39.7715 -171.841 -72.6475 -346.157 -93.1055 -523.2
c-1.37891 -11.9717 -11.5488 -20.8018 -23.3174 -20.8018c-0.901367 0 -1.81055 0.046875 -2.72754 0.15625c-12.8965 1.48828 -22.1416 13.1553 -20.6533 26.0518c19.3916 167.829 49.6982 332.971 86.4375 495.707c-65.9326 -28.4023 -130.948 -60.5967 -194.828 -96.8262
c-3.65918 -2.07617 -7.64746 -3.06348 -11.5732 -3.06348c-8.1875 0 -16.1406 4.28613 -20.4658 11.918c-6.40918 11.29 -2.44434 25.6357 8.8457 32.0371c75.5781 42.8584 152.699 80.2949 231.066 112.45c57.1572 242.796 127.627 480.248 196.819 713.133
c3.69824 12.4424 16.791 19.5254 29.2256 15.835c12.4424 -3.69824 19.5332 -16.7832 15.835 -29.2256c-65.9482 -221.978 -133.057 -448.132 -188.553 -678.799c133.284 50.1768 270.039 84.9492 409.129 103.902c53.8984 212.552 115.271 422.118 183.853 627.102
c4.12109 12.3164 17.4727 18.9375 29.75 14.8398c12.3164 -4.12109 18.9531 -17.4404 14.8398 -29.749c-67.0693 -200.471 -127.251 -405.345 -180.201 -613.125c4.6543 -3.72168 7.92188 -9.1748 8.68164 -15.5605c1.47266 -12.3643 -6.98145 -23.5293 -19.0479 -25.7861
c-47.7549 -191.193 -89.4531 -384.722 -124.648 -579.527c-2.05273 -11.3613 -11.9561 -19.3379 -23.1055 -19.3379c-1.39453 0 -2.79688 0.132812 -4.20703 0.383789z" />
    <glyph glyph-name="I" unicode="I" horiz-adv-x="553" 
d="M743.116 923.385c-41.8945 2.44434 -85.1523 -4.85742 -121.938 -12.3398c-8.37598 -1.69238 -16.7363 -3.4707 -25.0889 -5.32812c-107.851 -317.019 -204.277 -643.031 -287.55 -972.092c56.9062 21.249 114.439 39.7793 172.412 55.1836
c12.5752 3.33008 25.417 -4.12891 28.7549 -16.6807c3.33008 -12.5439 -4.13672 -25.417 -16.6807 -28.7549c-66.8262 -17.7549 -133.088 -39.6855 -198.417 -65.3926c-9.22949 -37.1621 -18.3418 -74.3555 -27.2344 -111.58
c-2.57812 -10.7969 -12.2158 -18.0605 -22.8477 -18.0605c-1.80176 0 -3.64258 0.211914 -5.47559 0.650391c-12.6221 3.0166 -20.418 15.6943 -17.4014 28.3164c6.25293 26.1768 12.5996 52.3457 19.0166 78.499c-52.7617 -22.6826 -104.842 -47.833 -155.958 -75.5303
c-3.55762 -1.92773 -7.39648 -2.84473 -11.1807 -2.84473c-8.34473 0 -16.4307 4.45801 -20.6855 12.3164c-6.18945 11.4082 -1.9502 25.6758 9.46582 31.8574c62.8848 34.0752 127.203 64.3584 192.478 91.0059c82.9824 331.537 179.308 660.198 287.229 979.959
c-106.816 -28.1357 -211.572 -68.8945 -312.363 -121.656c-3.47852 -1.8252 -7.20801 -2.6875 -10.8828 -2.6875c-8.46191 0 -16.6416 4.5918 -20.8408 12.6074c-6.02539 11.502 -1.58301 25.6992 9.91895 31.7246c113.344 59.3359 231.592 104.004 352.229 133.08
c4.27832 12.4893 8.51758 25.0098 12.835 37.4678c4.24707 12.2695 17.6221 18.7568 29.8994 14.5254c12.2695 -4.24707 18.7725 -17.6299 14.5254 -29.8994c-1.1748 -3.39258 -2.31836 -6.80859 -3.49316 -10.2012c39.3398 7.92871 85.5674 15.4736 132.015 12.7939
c20.2773 -1.19141 46.4863 -4.67773 69.498 -21.1943c10.5459 -7.57617 12.9512 -22.2588 5.38281 -32.8047c-7.57617 -10.5459 -22.2588 -12.9512 -32.8047 -5.38281c-13.124 9.41797 -30.0166 11.5801 -44.8174 12.4424z" />
    <glyph glyph-name="I" unicode="&#xcf;" horiz-adv-x="553" 
d="M743.116 923.385c-41.8945 2.44434 -85.1523 -4.85742 -121.938 -12.3398c-8.37598 -1.69238 -16.7363 -3.4707 -25.0889 -5.32812c-107.851 -317.019 -204.277 -643.031 -287.55 -972.092c56.9062 21.249 114.439 39.7793 172.412 55.1836
c12.5752 3.33008 25.417 -4.12891 28.7549 -16.6807c3.33008 -12.5439 -4.13672 -25.417 -16.6807 -28.7549c-66.8262 -17.7549 -133.088 -39.6855 -198.417 -65.3926c-9.22949 -37.1621 -18.3418 -74.3555 -27.2344 -111.58
c-2.57812 -10.7969 -12.2158 -18.0605 -22.8477 -18.0605c-1.80176 0 -3.64258 0.211914 -5.47559 0.650391c-12.6221 3.0166 -20.418 15.6943 -17.4014 28.3164c6.25293 26.1768 12.5996 52.3457 19.0166 78.499c-52.7617 -22.6826 -104.842 -47.833 -155.958 -75.5303
c-3.55762 -1.92773 -7.39648 -2.84473 -11.1807 -2.84473c-8.34473 0 -16.4307 4.45801 -20.6855 12.3164c-6.18945 11.4082 -1.9502 25.6758 9.46582 31.8574c62.8848 34.0752 127.203 64.3584 192.478 91.0059c82.9824 331.537 179.308 660.198 287.229 979.959
c-106.816 -28.1357 -211.572 -68.8945 -312.363 -121.656c-3.47852 -1.8252 -7.20801 -2.6875 -10.8828 -2.6875c-8.46191 0 -16.6416 4.5918 -20.8408 12.6074c-6.02539 11.502 -1.58301 25.6992 9.91895 31.7246c113.344 59.3359 231.592 104.004 352.229 133.08
c4.27832 12.4893 8.51758 25.0098 12.835 37.4678c4.24707 12.2695 17.6221 18.7568 29.8994 14.5254c12.2695 -4.24707 18.7725 -17.6299 14.5254 -29.8994c-1.1748 -3.39258 -2.31836 -6.80859 -3.49316 -10.2012c39.3398 7.92871 85.5674 15.4736 132.015 12.7939
c20.2773 -1.19141 46.4863 -4.67773 69.498 -21.1943c10.5459 -7.57617 12.9512 -22.2588 5.38281 -32.8047c-7.57617 -10.5459 -22.2588 -12.9512 -32.8047 -5.38281c-13.124 9.41797 -30.0166 11.5801 -44.8174 12.4424z" />
    <glyph glyph-name="I" unicode="&#xce;" horiz-adv-x="553" 
d="M743.116 923.385c-41.8945 2.44434 -85.1523 -4.85742 -121.938 -12.3398c-8.37598 -1.69238 -16.7363 -3.4707 -25.0889 -5.32812c-107.851 -317.019 -204.277 -643.031 -287.55 -972.092c56.9062 21.249 114.439 39.7793 172.412 55.1836
c12.5752 3.33008 25.417 -4.12891 28.7549 -16.6807c3.33008 -12.5439 -4.13672 -25.417 -16.6807 -28.7549c-66.8262 -17.7549 -133.088 -39.6855 -198.417 -65.3926c-9.22949 -37.1621 -18.3418 -74.3555 -27.2344 -111.58
c-2.57812 -10.7969 -12.2158 -18.0605 -22.8477 -18.0605c-1.80176 0 -3.64258 0.211914 -5.47559 0.650391c-12.6221 3.0166 -20.418 15.6943 -17.4014 28.3164c6.25293 26.1768 12.5996 52.3457 19.0166 78.499c-52.7617 -22.6826 -104.842 -47.833 -155.958 -75.5303
c-3.55762 -1.92773 -7.39648 -2.84473 -11.1807 -2.84473c-8.34473 0 -16.4307 4.45801 -20.6855 12.3164c-6.18945 11.4082 -1.9502 25.6758 9.46582 31.8574c62.8848 34.0752 127.203 64.3584 192.478 91.0059c82.9824 331.537 179.308 660.198 287.229 979.959
c-106.816 -28.1357 -211.572 -68.8945 -312.363 -121.656c-3.47852 -1.8252 -7.20801 -2.6875 -10.8828 -2.6875c-8.46191 0 -16.6416 4.5918 -20.8408 12.6074c-6.02539 11.502 -1.58301 25.6992 9.91895 31.7246c113.344 59.3359 231.592 104.004 352.229 133.08
c4.27832 12.4893 8.51758 25.0098 12.835 37.4678c4.24707 12.2695 17.6221 18.7568 29.8994 14.5254c12.2695 -4.24707 18.7725 -17.6299 14.5254 -29.8994c-1.1748 -3.39258 -2.31836 -6.80859 -3.49316 -10.2012c39.3398 7.92871 85.5674 15.4736 132.015 12.7939
c20.2773 -1.19141 46.4863 -4.67773 69.498 -21.1943c10.5459 -7.57617 12.9512 -22.2588 5.38281 -32.8047c-7.57617 -10.5459 -22.2588 -12.9512 -32.8047 -5.38281c-13.124 9.41797 -30.0166 11.5801 -44.8174 12.4424z" />
    <glyph glyph-name="I" unicode="&#xcd;" horiz-adv-x="553" 
d="M743.116 923.385c-41.8945 2.44434 -85.1523 -4.85742 -121.938 -12.3398c-8.37598 -1.69238 -16.7363 -3.4707 -25.0889 -5.32812c-107.851 -317.019 -204.277 -643.031 -287.55 -972.092c56.9062 21.249 114.439 39.7793 172.412 55.1836
c12.5752 3.33008 25.417 -4.12891 28.7549 -16.6807c3.33008 -12.5439 -4.13672 -25.417 -16.6807 -28.7549c-66.8262 -17.7549 -133.088 -39.6855 -198.417 -65.3926c-9.22949 -37.1621 -18.3418 -74.3555 -27.2344 -111.58
c-2.57812 -10.7969 -12.2158 -18.0605 -22.8477 -18.0605c-1.80176 0 -3.64258 0.211914 -5.47559 0.650391c-12.6221 3.0166 -20.418 15.6943 -17.4014 28.3164c6.25293 26.1768 12.5996 52.3457 19.0166 78.499c-52.7617 -22.6826 -104.842 -47.833 -155.958 -75.5303
c-3.55762 -1.92773 -7.39648 -2.84473 -11.1807 -2.84473c-8.34473 0 -16.4307 4.45801 -20.6855 12.3164c-6.18945 11.4082 -1.9502 25.6758 9.46582 31.8574c62.8848 34.0752 127.203 64.3584 192.478 91.0059c82.9824 331.537 179.308 660.198 287.229 979.959
c-106.816 -28.1357 -211.572 -68.8945 -312.363 -121.656c-3.47852 -1.8252 -7.20801 -2.6875 -10.8828 -2.6875c-8.46191 0 -16.6416 4.5918 -20.8408 12.6074c-6.02539 11.502 -1.58301 25.6992 9.91895 31.7246c113.344 59.3359 231.592 104.004 352.229 133.08
c4.27832 12.4893 8.51758 25.0098 12.835 37.4678c4.24707 12.2695 17.6221 18.7568 29.8994 14.5254c12.2695 -4.24707 18.7725 -17.6299 14.5254 -29.8994c-1.1748 -3.39258 -2.31836 -6.80859 -3.49316 -10.2012c39.3398 7.92871 85.5674 15.4736 132.015 12.7939
c20.2773 -1.19141 46.4863 -4.67773 69.498 -21.1943c10.5459 -7.57617 12.9512 -22.2588 5.38281 -32.8047c-7.57617 -10.5459 -22.2588 -12.9512 -32.8047 -5.38281c-13.124 9.41797 -30.0166 11.5801 -44.8174 12.4424z" />
    <glyph glyph-name="J" unicode="J" horiz-adv-x="656" 
d="M790.207 862.099c-6.77734 4.69336 -17.834 3.5127 -32.3525 0.237305c-52.4092 -11.7295 -103.996 -30.3535 -154.345 -52.2686c-11.1807 -83.585 -30.251 -164.828 -49.541 -242.443c-16.0068 -64.4131 -33.793 -133.315 -54.2188 -204.364
c9.2373 2.44434 18.5537 4.49707 27.9561 6.12695c12.8105 2.20215 24.9551 -6.3457 27.1807 -19.1328s-6.3457 -24.9551 -19.1328 -27.1807c-17.4883 -3.04004 -34.8818 -7.88965 -52.1035 -14.3379c-26.7412 -88.1768 -57.7842 -178.642 -94.6953 -267.046
c-41.0488 -98.292 -80.7422 -172.052 -124.901 -232.124c-26.2559 -35.7285 -52.4727 -60.6211 -80.1621 -76.1113c-26.7725 -14.9805 -50.1211 -22.4785 -69.8496 -22.4785c-14.3301 0 -26.7412 3.95703 -37.1777 11.8857
c-28.0029 21.2725 -34.1455 65.1182 -18.2715 130.307c34.9766 143.634 187.362 403.024 386.556 490.841c24.2656 81.7754 44.9033 161.326 63.1982 234.953c16.6416 66.9434 33.0879 136.598 44.2373 207.726c-31.6934 -15.2158 -62.8301 -31.2861 -93.2852 -47.2852
c-124.281 -65.2979 -226.679 -124.367 -322.487 -200.384c-8.05469 -6.38574 -15.874 -12.7949 -22.8008 -19.8467c0.87793 -1.24609 1.65332 -2.60156 2.2959 -4.05078c5.26562 -11.8623 -0.078125 -25.7539 -11.9404 -31.0195
c-4.27051 -1.89648 -8.80664 -2.84473 -13.375 -2.84473c-4.33301 0 -8.68945 0.854492 -12.8809 2.5625c-9.16699 3.74512 -16.5947 11.3369 -20.3633 20.833c-2.71875 6.84766 -2.07617 14.5732 1.74707 20.873c13.1475 21.6641 30.9648 36.7471 48.085 50.3252
c98.6836 78.2969 203.229 138.651 329.845 205.18c39.7559 20.8887 80.6787 41.8867 122.659 61.1143c3.25977 29.1152 5.44531 58.4189 6.1582 87.832c0.313477 12.9746 11.0869 23.1758 24.0693 22.9248c12.9746 -0.313477 23.2461 -11.0869 22.9248 -24.0693
c-0.533203 -21.8525 -1.85742 -43.5869 -3.76953 -65.1885c44.9346 18.4209 91.0049 34.0439 138.126 44.5898c15.4824 3.46289 44.3076 9.92676 69.4189 -7.51465c10.6641 -7.4043 13.3125 -22.0479 5.9082 -32.7119c-7.4043 -10.6719 -22.0557 -13.3125 -32.7119 -5.9082z
M345.569 59.8291c30.4863 73 56.9287 147.591 80.2383 221.163c-155.755 -91.0762 -287.299 -298.261 -321.554 -438.925c-13.1318 -53.9375 -5.52344 -76.7695 1.03418 -81.7607c5.93164 -4.52051 24.0469 -3.48633 55.6387 14.1973
c21.7109 12.1445 43.0459 32.7197 65.2432 62.916c41.8867 56.9932 79.8242 127.658 119.399 222.409z" />
    <glyph glyph-name="K" unicode="K" horiz-adv-x="798" 
d="M914.315 -133.092c-45.6318 -4.66211 -152.526 -15.5166 -262.838 39.3369c-125.856 62.5479 -215.506 189.18 -266.904 376.745c-18.209 -34.1768 -36.0654 -68.6357 -53.6396 -103.33c-10.0527 -28.1201 -20.2695 -56.1152 -30.6592 -83.9453
c-43.0859 -115.42 -81.2588 -206.738 -120.121 -287.401c-22.5967 -46.9014 -50.0977 -100.078 -90.6758 -137.64c-4.48145 -4.14453 -10.2168 -6.25977 -15.9756 -6.25977c-4.80273 0 -9.62109 1.45703 -13.7422 4.43457
c-9.07324 6.54199 -12.2773 18.5771 -7.66211 28.7705c75.4521 166.544 152.213 335.972 235.571 500.698c61.4668 172.334 116.344 349.918 163.512 529.147c31.7793 120.764 62.2109 250.749 69.623 382.991c0.720703 12.9668 11.8779 22.9727 24.7822 22.1504
c12.959 -0.728516 22.8779 -11.8232 22.1494 -24.7822c-7.64746 -136.41 -38.6826 -269.177 -71.0889 -392.322c-24.3359 -92.4863 -50.7246 -184.55 -78.9863 -275.673c43.3594 75.1865 88.8193 148.492 136.919 219.048c95.1191 139.528 176.871 231.85 265.063 299.357
c41.3857 31.6777 66.6543 13.7744 75.5938 4.60742c8.35254 -8.57129 8.93262 -22.0479 1.34863 -31.3086c-50.3174 -61.4121 -104.074 -120.552 -156.053 -177.748c-115.529 -127.102 -234.93 -258.489 -320.411 -419.94
c71.5352 -304.545 236.151 -445.899 489.438 -420.169c20.6846 2.0918 29.248 2.96973 38.2275 -3.04004c10.7891 -7.21582 13.6807 -21.8125 6.46484 -32.6016c-5.61816 -8.40723 -15.7178 -12.0273 -25.0107 -9.79395
c-3.10254 -0.132812 -9.33105 -0.767578 -14.9258 -1.33203z" />
    <glyph glyph-name="L" unicode="L" horiz-adv-x="728" 
d="M922.467 -99.0947c1.36328 -12.9043 -7.99219 -24.4863 -20.9121 -25.8574c-227.666 -24.1318 -330.275 -88.8105 -429.516 -151.351c-20.8027 -13.1084 -41.7539 -26.3105 -63.9043 -39.1367c-32.4453 -52.3311 -74.3867 -105.367 -129.608 -136.395
c-27.3135 -15.3486 -59.375 -24.1475 -91.6084 -24.1475c-49.2129 0 -98.8486 20.4814 -132.735 69.3965c-4.76367 6.87891 -5.51562 15.7793 -1.95801 23.3633c3.5498 7.57617 10.876 12.6924 19.2129 13.4365c142.686 12.6455 228.81 47.3867 302.836 89.1006
c8.0625 13.4922 15.498 26.8672 22.3535 39.6387c32.5234 60.5811 64.2715 215.607 101.034 395.118c60.2832 294.367 135.305 660.724 266.865 919.119c5.8916 11.5645 20.0342 16.1719 31.6143 10.2803c11.5645 -5.88379 16.1719 -20.042 10.2803 -31.6064
c-128.669 -252.738 -202.978 -615.631 -262.697 -907.224c-34.0439 -166.238 -61.8506 -302.037 -92.1338 -378.273c102.382 64.499 210.014 130.518 445.021 155.434c12.959 1.37891 24.4844 -7.99219 25.8555 -20.8965zM255.515 -410.857
c22.2285 12.4893 42.2402 29.6787 60.2451 49.3291c-51.79 -21.3584 -112.928 -39.0342 -190.833 -49.5879c40.0137 -25.6992 91.71 -21.5781 130.588 0.258789z" />
    <glyph glyph-name="M" unicode="M" horiz-adv-x="954" 
d="M889.713 532.301c-70.5557 -222.314 -143.512 -452.198 -190.271 -687.48c-8.69727 -43.7754 -16.1641 -86.5713 -11.9492 -128.811c1.28516 -12.9121 -8.14844 -24.4297 -21.0605 -25.7227c-0.791016 -0.078125 -1.58203 -0.117188 -2.35742 -0.117188
c-11.9326 0 -22.1572 9.04199 -23.3643 21.1709c-4.84961 48.6328 3.57324 97.1328 12.623 142.647c47.2695 237.82 120.622 468.973 191.569 692.51c28.8564 90.9268 58.6924 184.94 86.3115 277.982c13.2725 44.6914 25.9102 88.709 34.7871 134.02
c-56.6406 -89.0703 -219.173 -393.607 -341.879 -623.507c-170.242 -318.969 -218.186 -406.966 -231.137 -418.343c-19.1416 -16.8145 -35.3838 -10.5303 -41.4639 -7.04395c-39.9043 22.8398 -36.4492 139.043 88.6855 791.907
c-112.246 -277.803 -243.877 -616.72 -344.167 -902.312c-4.88867 -13.9229 -15.2158 -17.6367 -23.1689 -17.6367c-2.50684 0 -4.7793 0.368164 -6.57324 0.901367c-21.6953 6.44824 -16.9004 26.6318 -12.6611 44.4258c2.53125 10.6562 6.33887 26.1934 11.1572 45.8359
c26.6475 108.689 89.0391 363.23 131.482 596.381c69.9209 384.134 41.0244 461.451 25.3545 476.863c-1.72363 1.7002 -3.69043 3.62793 -10.5615 1.81055c-12.5596 -3.33008 -25.4092 4.19922 -28.708 16.7588c-3.29102 12.5596 4.20703 25.417 16.7666 28.708
c21.124 5.55469 40.8135 0.657227 55.4805 -13.7598c29.9775 -29.499 61.3574 -115.372 -12.0811 -518.796c-17.1123 -93.9902 -37.4287 -191.357 -57.3457 -281.312c102.483 270.791 213.187 546.91 298.551 752.606c0.219727 0.541016 0.548828 0.995117 0.807617 1.50488
c0.383789 0.767578 0.744141 1.53516 1.20605 2.24023c0.430664 0.673828 0.94043 1.26953 1.43359 1.88867c0.454102 0.556641 0.876953 1.12891 1.37012 1.64648c0.603516 0.619141 1.25391 1.15234 1.91211 1.70117c0.500977 0.415039 0.978516 0.845703 1.51172 1.22168
c0.697266 0.493164 1.44141 0.900391 2.19336 1.30762c0.572266 0.321289 1.13672 0.658203 1.74023 0.924805c0.767578 0.336914 1.55859 0.580078 2.34961 0.838867c0.650391 0.211914 1.28516 0.439453 1.95117 0.595703
c0.837891 0.188477 1.69238 0.274414 2.54688 0.375977c0.658203 0.078125 1.30078 0.179688 1.9668 0.203125c0.924805 0.03125 1.8418 -0.0625 2.77441 -0.140625c0.517578 -0.0390625 1.02734 0 1.54492 -0.078125
c0.132812 -0.015625 0.242188 -0.0703125 0.375 -0.09375c0.798828 -0.140625 1.58203 -0.391602 2.38086 -0.619141c0.767578 -0.211914 1.54297 -0.392578 2.27148 -0.682617c0.132812 -0.046875 0.265625 -0.0625 0.390625 -0.117188
c0.525391 -0.211914 0.963867 -0.533203 1.45703 -0.78418c0.791016 -0.391602 1.58203 -0.767578 2.31055 -1.2373c0.626953 -0.407227 1.17578 -0.884766 1.75586 -1.33887c0.611328 -0.485352 1.23047 -0.947266 1.78711 -1.48828
c0.564453 -0.541016 1.04199 -1.14453 1.54297 -1.73242c0.477539 -0.564453 0.962891 -1.11328 1.38574 -1.7168c0.430664 -0.626953 0.783203 -1.28516 1.15137 -1.94336c0.375977 -0.666016 0.759766 -1.31641 1.06543 -2.01367
c0.297852 -0.666016 0.501953 -1.35547 0.737305 -2.05273c0.243164 -0.736328 0.509766 -1.46484 0.682617 -2.23242c0.164062 -0.751953 0.242188 -1.51953 0.335938 -2.28711c0.0859375 -0.736328 0.203125 -1.45703 0.226562 -2.20898
c0.0234375 -0.87793 -0.0703125 -1.75586 -0.140625 -2.63379c-0.046875 -0.548828 0 -1.08203 -0.0859375 -1.63867c-5.46875 -35.415 -19.0469 -105.908 -36.2295 -195.15c-26.209 -136.136 -62.1094 -322.573 -86.8525 -478.164
c-25.6758 -161.451 -30.6592 -236.512 -29.9463 -271.347c35.666 61.373 122.526 224.125 207.005 382.411c254.062 476.017 348.656 647.811 373.353 663.496c26.7959 17.0098 43.8369 5.11621 49.9248 -0.791992c15.7012 -15.2236 11.7441 -39.1602 10.4434 -47.0264
c-9.25293 -55.8174 -24.2412 -108.345 -40.084 -161.71c-27.7441 -93.458 -57.6514 -187.684 -86.5713 -278.814z" />
    <glyph glyph-name="N" unicode="N" horiz-adv-x="685" 
d="M731.794 875.371c-20.5049 -87.1738 -51.3545 -191.108 -84.0273 -301.146c-77.7402 -261.89 -165.854 -558.717 -157.698 -766.865c0.509766 -12.9668 -9.58984 -23.8965 -22.5645 -24.4062c-12.9277 -0.290039 -23.9053 9.59766 -24.4062 22.5723
c-8.46191 215.905 80.8271 516.689 159.602 782.074c30.377 102.351 59.1865 199.381 79.3076 281.775c-28.1514 -21.6562 -51.3438 -51.3047 -71.3779 -78.3125c-202.664 -273.274 -321.484 -608.549 -436.395 -932.791
c-22.0713 -62.2734 -44.8955 -126.679 -67.9307 -189.54c-3.48633 -9.51953 -12.4893 -15.4277 -22.0713 -15.4277c-2.6875 0 -5.41406 0.469727 -8.08594 1.44922c-9.14355 3.3457 -14.9414 11.7764 -15.3955 20.9199c-6.71484 7.98438 -12.0273 20.9912 -10.4834 42.3027
c19 262.814 109.371 545.421 189.102 794.751c54.4385 170.227 105.853 331.02 127.814 463.512c2.12305 12.8105 14.2051 21.5 27.0312 19.3457c12.8105 -2.12305 21.4688 -14.2285 19.3457 -27.0312c-22.5186 -135.869 -74.4424 -298.245 -129.414 -470.148
c-69.333 -216.814 -146.752 -459.022 -177.168 -689.047c7.71777 21.6797 15.3887 43.2891 22.9492 64.624c116.07 327.502 236.089 666.153 442.944 945.085c27.627 37.2559 60.9346 79.1582 106.755 105.077c3.98047 2.25684 13.2891 7.51465 25.1826 5.68945
c9.01855 -1.40234 16.8145 -6.37793 21.9541 -14.0098c9.73145 -14.4326 6.76172 -33.1035 5.03027 -40.4531z" />
    <glyph glyph-name="O" unicode="O" horiz-adv-x="663" 
d="M461.892 -10.417c-85.8027 -128.065 -178.136 -206.471 -274.422 -233.04c-14.5654 -4.02734 -28.332 -6.00977 -41.1113 -6.00977c-31.5361 0 -57.0947 12.0898 -73.9717 35.5879c-13.4688 18.7656 -20.7002 44.0732 -22.1104 77.3965
c-2.49121 58.9277 12.043 115.271 28.1289 167.374c26.2012 84.8545 59.375 169.458 100.635 255.974c-14.291 10.4287 -26.7256 22.4004 -37.3027 35.9082c-88.2236 112.686 -11.5566 285.835 -2.52246 305.203c55.2227 118.444 135.337 215.796 231.67 281.533
c76.9102 52.4795 147.544 64.6943 204.286 35.3125c50.3096 -26.0518 89.5244 -86.9854 104.89 -163.002c14.3145 -70.8457 7.45898 -144.512 -0.117188 -200.769c-29.335 -217.81 -104.74 -422.339 -218.052 -591.469zM178.741 351.756
c6.18945 -7.90527 13.3496 -15.1602 21.459 -21.749c54.2119 107.553 120.999 218.569 202.406 337.053c7.34961 10.7109 21.9932 13.4062 32.6807 6.06445c10.7031 -7.34961 13.4141 -21.9775 6.06445 -32.6807c-80.9688 -117.856 -147.168 -228.026 -200.697 -334.624
c70.4062 -30.7217 180.091 -32.9785 323.576 -6.11133c32.3984 91.4443 55.7158 188.075 69.1221 287.613c7.08301 52.6133 13.5547 121.202 0.626953 185.184c-12.3799 61.2549 -43.2031 111.29 -80.4277 130.564c-51.0928 26.4512 -113.124 -3.0166 -156.178 -32.3984
c-89.3682 -60.9814 -163.912 -151.775 -215.569 -262.564c-3.10254 -6.66016 -75.2256 -164.186 -3.06348 -256.351zM174.948 -198.154c85.1289 23.4902 168.529 95.4629 247.892 213.899c47.9512 71.5742 88.874 149.77 122.103 232.799
c-141.378 -23.5684 -250.091 -18.5615 -325.011 14.8477c-39.5674 -83.3271 -71.4326 -164.789 -96.6152 -246.369c-14.8398 -48.084 -28.2773 -99.7178 -26.084 -151.523c0.995117 -23.5527 5.48438 -41.0332 13.3271 -51.9707
c14.5889 -20.3086 43.0693 -17.5664 64.3887 -11.6826z" />
    <glyph glyph-name="O" unicode="&#xd6;" horiz-adv-x="663" 
d="M461.892 -10.417c-85.8027 -128.065 -178.136 -206.471 -274.422 -233.04c-14.5654 -4.02734 -28.332 -6.00977 -41.1113 -6.00977c-31.5361 0 -57.0947 12.0898 -73.9717 35.5879c-13.4688 18.7656 -20.7002 44.0732 -22.1104 77.3965
c-2.49121 58.9277 12.043 115.271 28.1289 167.374c26.2012 84.8545 59.375 169.458 100.635 255.974c-14.291 10.4287 -26.7256 22.4004 -37.3027 35.9082c-88.2236 112.686 -11.5566 285.835 -2.52246 305.203c55.2227 118.444 135.337 215.796 231.67 281.533
c76.9102 52.4795 147.544 64.6943 204.286 35.3125c50.3096 -26.0518 89.5244 -86.9854 104.89 -163.002c14.3145 -70.8457 7.45898 -144.512 -0.117188 -200.769c-29.335 -217.81 -104.74 -422.339 -218.052 -591.469zM178.741 351.756
c6.18945 -7.90527 13.3496 -15.1602 21.459 -21.749c54.2119 107.553 120.999 218.569 202.406 337.053c7.34961 10.7109 21.9932 13.4062 32.6807 6.06445c10.7031 -7.34961 13.4141 -21.9775 6.06445 -32.6807c-80.9688 -117.856 -147.168 -228.026 -200.697 -334.624
c70.4062 -30.7217 180.091 -32.9785 323.576 -6.11133c32.3984 91.4443 55.7158 188.075 69.1221 287.613c7.08301 52.6133 13.5547 121.202 0.626953 185.184c-12.3799 61.2549 -43.2031 111.29 -80.4277 130.564c-51.0928 26.4512 -113.124 -3.0166 -156.178 -32.3984
c-89.3682 -60.9814 -163.912 -151.775 -215.569 -262.564c-3.10254 -6.66016 -75.2256 -164.186 -3.06348 -256.351zM174.948 -198.154c85.1289 23.4902 168.529 95.4629 247.892 213.899c47.9512 71.5742 88.874 149.77 122.103 232.799
c-141.378 -23.5684 -250.091 -18.5615 -325.011 14.8477c-39.5674 -83.3271 -71.4326 -164.789 -96.6152 -246.369c-14.8398 -48.084 -28.2773 -99.7178 -26.084 -151.523c0.995117 -23.5527 5.48438 -41.0332 13.3271 -51.9707
c14.5889 -20.3086 43.0693 -17.5664 64.3887 -11.6826z" />
    <glyph glyph-name="O" unicode="&#xd5;" horiz-adv-x="663" 
d="M461.892 -10.417c-85.8027 -128.065 -178.136 -206.471 -274.422 -233.04c-14.5654 -4.02734 -28.332 -6.00977 -41.1113 -6.00977c-31.5361 0 -57.0947 12.0898 -73.9717 35.5879c-13.4688 18.7656 -20.7002 44.0732 -22.1104 77.3965
c-2.49121 58.9277 12.043 115.271 28.1289 167.374c26.2012 84.8545 59.375 169.458 100.635 255.974c-14.291 10.4287 -26.7256 22.4004 -37.3027 35.9082c-88.2236 112.686 -11.5566 285.835 -2.52246 305.203c55.2227 118.444 135.337 215.796 231.67 281.533
c76.9102 52.4795 147.544 64.6943 204.286 35.3125c50.3096 -26.0518 89.5244 -86.9854 104.89 -163.002c14.3145 -70.8457 7.45898 -144.512 -0.117188 -200.769c-29.335 -217.81 -104.74 -422.339 -218.052 -591.469zM178.741 351.756
c6.18945 -7.90527 13.3496 -15.1602 21.459 -21.749c54.2119 107.553 120.999 218.569 202.406 337.053c7.34961 10.7109 21.9932 13.4062 32.6807 6.06445c10.7031 -7.34961 13.4141 -21.9775 6.06445 -32.6807c-80.9688 -117.856 -147.168 -228.026 -200.697 -334.624
c70.4062 -30.7217 180.091 -32.9785 323.576 -6.11133c32.3984 91.4443 55.7158 188.075 69.1221 287.613c7.08301 52.6133 13.5547 121.202 0.626953 185.184c-12.3799 61.2549 -43.2031 111.29 -80.4277 130.564c-51.0928 26.4512 -113.124 -3.0166 -156.178 -32.3984
c-89.3682 -60.9814 -163.912 -151.775 -215.569 -262.564c-3.10254 -6.66016 -75.2256 -164.186 -3.06348 -256.351zM174.948 -198.154c85.1289 23.4902 168.529 95.4629 247.892 213.899c47.9512 71.5742 88.874 149.77 122.103 232.799
c-141.378 -23.5684 -250.091 -18.5615 -325.011 14.8477c-39.5674 -83.3271 -71.4326 -164.789 -96.6152 -246.369c-14.8398 -48.084 -28.2773 -99.7178 -26.084 -151.523c0.995117 -23.5527 5.48438 -41.0332 13.3271 -51.9707
c14.5889 -20.3086 43.0693 -17.5664 64.3887 -11.6826z" />
    <glyph glyph-name="O" unicode="&#xd4;" horiz-adv-x="663" 
d="M461.892 -10.417c-85.8027 -128.065 -178.136 -206.471 -274.422 -233.04c-14.5654 -4.02734 -28.332 -6.00977 -41.1113 -6.00977c-31.5361 0 -57.0947 12.0898 -73.9717 35.5879c-13.4688 18.7656 -20.7002 44.0732 -22.1104 77.3965
c-2.49121 58.9277 12.043 115.271 28.1289 167.374c26.2012 84.8545 59.375 169.458 100.635 255.974c-14.291 10.4287 -26.7256 22.4004 -37.3027 35.9082c-88.2236 112.686 -11.5566 285.835 -2.52246 305.203c55.2227 118.444 135.337 215.796 231.67 281.533
c76.9102 52.4795 147.544 64.6943 204.286 35.3125c50.3096 -26.0518 89.5244 -86.9854 104.89 -163.002c14.3145 -70.8457 7.45898 -144.512 -0.117188 -200.769c-29.335 -217.81 -104.74 -422.339 -218.052 -591.469zM178.741 351.756
c6.18945 -7.90527 13.3496 -15.1602 21.459 -21.749c54.2119 107.553 120.999 218.569 202.406 337.053c7.34961 10.7109 21.9932 13.4062 32.6807 6.06445c10.7031 -7.34961 13.4141 -21.9775 6.06445 -32.6807c-80.9688 -117.856 -147.168 -228.026 -200.697 -334.624
c70.4062 -30.7217 180.091 -32.9785 323.576 -6.11133c32.3984 91.4443 55.7158 188.075 69.1221 287.613c7.08301 52.6133 13.5547 121.202 0.626953 185.184c-12.3799 61.2549 -43.2031 111.29 -80.4277 130.564c-51.0928 26.4512 -113.124 -3.0166 -156.178 -32.3984
c-89.3682 -60.9814 -163.912 -151.775 -215.569 -262.564c-3.10254 -6.66016 -75.2256 -164.186 -3.06348 -256.351zM174.948 -198.154c85.1289 23.4902 168.529 95.4629 247.892 213.899c47.9512 71.5742 88.874 149.77 122.103 232.799
c-141.378 -23.5684 -250.091 -18.5615 -325.011 14.8477c-39.5674 -83.3271 -71.4326 -164.789 -96.6152 -246.369c-14.8398 -48.084 -28.2773 -99.7178 -26.084 -151.523c0.995117 -23.5527 5.48438 -41.0332 13.3271 -51.9707
c14.5889 -20.3086 43.0693 -17.5664 64.3887 -11.6826z" />
    <glyph glyph-name="O" unicode="&#xd3;" horiz-adv-x="663" 
d="M461.892 -10.417c-85.8027 -128.065 -178.136 -206.471 -274.422 -233.04c-14.5654 -4.02734 -28.332 -6.00977 -41.1113 -6.00977c-31.5361 0 -57.0947 12.0898 -73.9717 35.5879c-13.4688 18.7656 -20.7002 44.0732 -22.1104 77.3965
c-2.49121 58.9277 12.043 115.271 28.1289 167.374c26.2012 84.8545 59.375 169.458 100.635 255.974c-14.291 10.4287 -26.7256 22.4004 -37.3027 35.9082c-88.2236 112.686 -11.5566 285.835 -2.52246 305.203c55.2227 118.444 135.337 215.796 231.67 281.533
c76.9102 52.4795 147.544 64.6943 204.286 35.3125c50.3096 -26.0518 89.5244 -86.9854 104.89 -163.002c14.3145 -70.8457 7.45898 -144.512 -0.117188 -200.769c-29.335 -217.81 -104.74 -422.339 -218.052 -591.469zM178.741 351.756
c6.18945 -7.90527 13.3496 -15.1602 21.459 -21.749c54.2119 107.553 120.999 218.569 202.406 337.053c7.34961 10.7109 21.9932 13.4062 32.6807 6.06445c10.7031 -7.34961 13.4141 -21.9775 6.06445 -32.6807c-80.9688 -117.856 -147.168 -228.026 -200.697 -334.624
c70.4062 -30.7217 180.091 -32.9785 323.576 -6.11133c32.3984 91.4443 55.7158 188.075 69.1221 287.613c7.08301 52.6133 13.5547 121.202 0.626953 185.184c-12.3799 61.2549 -43.2031 111.29 -80.4277 130.564c-51.0928 26.4512 -113.124 -3.0166 -156.178 -32.3984
c-89.3682 -60.9814 -163.912 -151.775 -215.569 -262.564c-3.10254 -6.66016 -75.2256 -164.186 -3.06348 -256.351zM174.948 -198.154c85.1289 23.4902 168.529 95.4629 247.892 213.899c47.9512 71.5742 88.874 149.77 122.103 232.799
c-141.378 -23.5684 -250.091 -18.5615 -325.011 14.8477c-39.5674 -83.3271 -71.4326 -164.789 -96.6152 -246.369c-14.8398 -48.084 -28.2773 -99.7178 -26.084 -151.523c0.995117 -23.5527 5.48438 -41.0332 13.3271 -51.9707
c14.5889 -20.3086 43.0693 -17.5664 64.3887 -11.6826z" />
    <glyph glyph-name="P" unicode="P" horiz-adv-x="766" 
d="M865.374 925.508c25.6367 -29.8047 35.625 -76.46 29.7012 -138.679c-9.74707 -102.1 -49.1504 -202.107 -110.954 -281.587c-56.5225 -72.6943 -131.686 -128.606 -217.363 -161.694c-88.208 -34.0752 -170.258 -35.2344 -237.648 -3.41602
c-0.329102 -0.751953 -0.666016 -1.50391 -0.995117 -2.24805c-88.9209 -200.102 -167.014 -410.154 -232.116 -624.328c-3.07129 -10.1152 -12.3721 -16.6807 -22.4795 -16.6807c-2.02148 0 -4.06641 0.266602 -6.10352 0.81543
c-12.2461 3.29102 -19.6816 15.6943 -16.7979 28.043c55.7783 239.02 120.646 473.925 186.375 693.238c-32.8447 46.3838 -51.5391 104.301 -49.5801 162.414c0.438477 12.9746 11.251 23.1289 24.2891 22.6982c12.9668 -0.438477 23.1367 -11.3057 22.6982 -24.2803
c-1.21484 -36.0732 7.08301 -69.9131 21.1553 -99.373c46.6426 153.271 93.332 298.175 137.154 430.651c-0.916992 0.250977 -1.81836 0.564453 -2.71191 0.924805c-12.0195 4.91309 -17.7783 18.6328 -12.873 30.6523c16.4229 40.1943 37.8994 76.5654 63.8262 108.086
c7.2002 8.76758 19.6191 11.1338 29.5537 5.62598c9.91895 -5.5 14.4951 -17.2998 10.8828 -28.0498c-59.0225 -175.57 -125.927 -379.214 -192.212 -599.068c6.27637 -7.18457 12.8662 -13.7979 19.6904 -19.792c69.2002 150.341 155.912 312.098 275.422 433.206
c53.1455 53.8662 103.071 88.5996 152.613 106.205c52.7461 18.7334 99.5693 10.2324 128.474 -23.3643zM285.155 356.984c1.16699 2.625 2.34277 5.25781 3.52637 7.89062c-5.1709 3.97266 -10.1699 8.15625 -15.0195 12.5596
c-14.4639 -48.6016 -28.8496 -97.8613 -43.0938 -147.803c17.707 42.8506 35.9082 85.3174 54.5869 127.353zM848.276 791.311c4.53613 47.5908 -2.0459 84.3633 -18.5469 103.536c-21.2725 24.7432 -57.4395 16.7197 -77.0898 9.73047
c-42.7168 -15.1768 -86.8369 -46.2275 -134.89 -94.9229c-116.352 -117.919 -201.332 -278.203 -269.302 -426.648c70.125 -33.4795 148.054 -16.1875 201.38 4.40332c77.7168 30.0166 145.898 80.749 197.188 146.705c56.3896 72.5225 92.3525 163.864 101.261 257.196z
" />
    <glyph glyph-name="Q" unicode="Q" horiz-adv-x="807" 
d="M496.59 -294.104c-7.54492 -10.5537 -22.2246 -12.9912 -32.8018 -5.46191c-35.1719 25.1504 -80.3105 31.0898 -146.354 19.2666c-58.1445 -10.3975 -115.459 -29.1387 -170.336 -55.708c-19.8936 -9.62109 -40.5156 -20.8643 -56.5625 -37.749
c-4.61523 -4.86523 -10.8281 -7.31738 -17.041 -7.31738c-5.81348 0 -11.6348 2.13867 -16.1865 6.46387c-9.41016 8.93164 -9.78613 23.8184 -0.84668 33.2285c21.2256 22.3457 46.2666 36.1201 70.1641 47.6846c41.957 20.3086 85.2773 36.2686 129.334 47.8486
c-19 5.13184 -34.835 15.7725 -46.4619 31.9678c-13.4609 18.7656 -20.6924 44.0732 -22.1025 77.3965c-2.49121 58.9277 12.043 115.271 28.1289 167.374c26.2012 84.8545 59.375 169.458 100.635 255.974c-14.291 10.4287 -26.7256 22.4004 -37.3027 35.9082
c-88.2236 112.686 -11.5566 285.835 -2.52246 305.203c55.2227 118.444 135.337 215.796 231.67 281.533c76.9102 52.4795 147.544 64.6943 204.286 35.3125c50.3096 -26.0518 89.5244 -86.9854 104.89 -163.002c14.3145 -70.8457 7.45898 -144.512 -0.117188 -200.769
c-29.335 -217.81 -104.74 -422.339 -218.052 -591.469c-72.7568 -108.596 -150.215 -181.337 -230.8 -217.19c39.748 0.987305 83.9619 -5.86816 122.918 -33.6982c10.5615 -7.55273 13.0059 -22.2275 5.46094 -32.7969zM315.867 351.754
c6.18945 -7.90527 13.3496 -15.1602 21.459 -21.749c54.2119 107.553 120.999 218.569 202.406 337.053c7.35742 10.7109 21.9932 13.4062 32.6807 6.06445c10.7031 -7.34961 13.4141 -21.9775 6.06445 -32.6807c-80.9688 -117.856 -147.168 -228.026 -200.697 -334.624
c70.4062 -30.7217 180.091 -32.9785 323.576 -6.11133c32.3984 91.4443 55.7158 188.075 69.1221 287.613c7.08301 52.6133 13.5547 121.202 0.626953 185.184c-12.3799 61.2549 -43.2031 111.29 -80.4277 130.564c-51.0928 26.4512 -113.124 -3.0166 -156.178 -32.3984
c-89.3682 -60.9814 -163.912 -151.775 -215.569 -262.564c-3.10254 -6.66016 -75.2256 -164.186 -3.06348 -256.351zM247.685 -186.467c14.5967 -20.3086 43.0801 -17.5752 64.3994 -11.6836c85.1289 23.4902 168.526 95.4561 247.881 213.9
c47.9512 71.5742 88.874 149.77 122.103 232.799c-141.378 -23.5684 -250.099 -18.5615 -325.011 14.8477c-39.5674 -83.3271 -71.4326 -164.789 -96.6152 -246.369c-14.8477 -48.084 -28.2773 -99.7178 -26.084 -151.523
c0.995117 -23.5527 5.48438 -41.0332 13.3271 -51.9707z" />
    <glyph glyph-name="R" unicode="R" horiz-adv-x="792" 
d="M784.108 505.262c-56.5225 -72.7021 -131.686 -128.618 -217.348 -161.706c-76.001 -29.3584 -147.387 -34.208 -208.791 -14.6748c53.8662 -145.232 282.019 -593.356 313.038 -624.062c9.97461 -7.53711 12.3408 -21.6641 5.17969 -32.0693
c-4.55957 -6.62109 -11.9092 -10.1787 -19.3838 -10.1787c-4.5918 0 -9.23047 1.33984 -13.3047 4.13672c-27.2432 18.75 -124.016 208.165 -179.277 319.4c-54.9014 110.522 -119.917 247.842 -148.656 322.918c-83.6797 -191.437 -157.573 -391.53 -219.565 -595.472
c-3.07129 -10.1152 -12.3721 -16.6807 -22.4795 -16.6807c-2.02148 0 -4.06641 0.266602 -6.10352 0.81543c-12.2461 3.2832 -19.6816 15.6943 -16.7979 28.043c55.7783 239.012 120.638 473.926 186.367 693.239c-32.8447 46.3838 -51.5391 104.301 -49.5801 162.414
c0.446289 12.9746 11.3369 23.1289 24.2881 22.6982c12.9668 -0.438477 23.1367 -11.3057 22.6982 -24.2803c-1.21484 -36.0732 7.08301 -69.9131 21.1553 -99.373c46.6426 153.279 93.332 298.183 137.154 430.659c-0.90918 0.250977 -1.81055 0.556641 -2.7041 0.916992
c-12.0195 4.91309 -17.7783 18.6328 -12.873 30.6523c16.4229 40.1943 37.8916 76.5576 63.8184 108.086c7.19238 8.75195 19.627 11.1182 29.5459 5.62598c9.91895 -5.5 14.4951 -17.2998 10.8828 -28.0498c-59.0225 -175.57 -125.927 -379.214 -192.212 -599.068
c6.27637 -7.18457 12.874 -13.7979 19.6982 -19.792c69.1924 150.333 155.904 312.09 275.414 433.206c53.1533 53.8662 103.071 88.6074 152.613 106.205c52.7539 18.7334 99.5771 10.2246 128.474 -23.3643c25.6367 -29.8047 35.6348 -76.4629 29.6953 -138.666
c-9.73926 -102.092 -49.1426 -202.092 -110.946 -281.579zM285.15 356.985c1.16699 2.625 2.33594 5.25781 3.51855 7.89062c-5.16309 3.97266 -10.1699 8.15625 -15.0195 12.5596c-14.4639 -48.6016 -28.8496 -97.8848 -43.1016 -147.826
c17.7148 42.8584 35.9238 85.3408 54.6025 127.376zM549.824 387.409c77.709 30.0088 145.891 80.7432 197.18 146.699c56.3975 72.5381 92.3604 163.872 101.261 257.196c4.54395 47.5986 -2.0459 84.3691 -18.5391 103.542
c-21.2725 24.7354 -57.4316 16.7197 -77.0898 9.73047c-42.709 -15.1689 -86.8291 -46.2197 -134.89 -94.9229c-116.359 -117.927 -201.34 -278.203 -269.302 -426.648c70.125 -33.4795 148.054 -16.1875 201.38 4.40332z" />
    <glyph glyph-name="S" unicode="S" horiz-adv-x="651" 
d="M100.996 -287.295c-25.3623 19.3525 -43.1582 54.2578 -48.8311 95.7764c-5.09277 37.2402 -0.204102 75.0762 4.62988 103.878c20.5986 122.777 66.7246 237.218 133.37 330.958c6.67578 9.39453 19.1885 12.5439 29.5156 7.48242
c10.3428 -5.07715 15.4824 -16.9004 12.1367 -27.9248l-24.3359 -80.2324c-3.76855 -12.4189 -16.9004 -19.4395 -29.3193 -15.6709c-0.916992 0.274414 -1.80273 0.603516 -2.65723 0.979492c-34.373 -68.127 -58.999 -143.846 -72.3506 -223.372
c-4.54395 -27.1016 -8.62598 -58.959 -4.41895 -89.7354c3.94922 -28.8721 15.4434 -53.083 30.7686 -64.7734c16.2266 -12.3799 39.5283 -13.0928 73.3057 -2.28027c88.623 28.3945 169.505 93.4736 227.768 183.249c32.9395 50.7559 46.1729 96.6543 39.3408 136.418
c-5.5625 32.3438 -24.6572 62.1328 -58.3799 91.0605c-23.2002 19.9014 -48.0215 36.167 -74.3008 53.3887c-27.9561 18.3184 -56.8682 37.2637 -83.6719 60.9727c-16.9004 14.957 -40.7432 38.752 -52.5898 72.5996c-16.7988 48.0215 -8.3291 105.273 25.8945 175.022
c68.7061 140.015 174.864 259.556 315.528 355.301c43.2578 29.4443 95.0791 59.8369 151.43 62.0225c8.07812 0.321289 32.7275 1.27734 51.5791 -16.0615c16.5088 -15.1846 24.8848 -41.1348 22.4014 -69.4277c-1.91992 -21.9385 -9.58301 -41.3379 -17.2695 -59.3271
c-49.6357 -116.156 -115.067 -220.599 -178.344 -321.602c-6.88672 -11.001 -21.3818 -14.3389 -32.3984 -7.44434c-11.001 6.89453 -14.3311 21.3975 -7.44434 32.3984c62.3213 99.4756 126.758 202.328 174.952 315.115c6.45605 15.0986 12.3555 29.9072 13.6719 44.9668
c1.27734 14.5342 -2.75781 26.459 -7.39648 30.7217c-2.13086 1.9668 -6.12695 4.16016 -17.9268 3.69043c-44.4883 -1.72363 -89.0625 -28.2217 -126.805 -53.9053c-133.848 -91.1074 -234.71 -204.537 -299.781 -337.155
c-27.9951 -57.0557 -35.9795 -103.753 -23.7256 -138.784c6.34668 -18.1152 18.4834 -34.4355 39.3721 -52.9189c24.2578 -21.4609 50.5059 -38.6592 78.2891 -56.8604c26.373 -17.2842 53.6396 -35.1562 79.1436 -57.0322
c41.793 -35.8457 66.7246 -75.8047 74.1055 -118.772c8.90039 -51.79 -6.66016 -108.971 -46.2354 -169.96c-64.1465 -98.8486 -153.945 -170.736 -252.856 -202.43c-9.86426 -3.16504 -30.7607 -9.85645 -54.7598 -9.85645c-19.8389 0 -41.8086 4.58398 -61.4043 19.5254z
" />
    <glyph glyph-name="T" unicode="T" horiz-adv-x="481" 
d="M1052.13 893.964c-0.329102 0.0078125 -0.671875 0.00683594 -1.0166 -0.00878906c-48.3506 0 -288.694 -41.5342 -524.172 -100.619c-136.903 -347.082 -246.674 -711.895 -326.506 -1086.01c-2.3584 -11.04 -12.1133 -18.6084 -22.9648 -18.6084
c-1.62988 0 -3.27539 0.172852 -4.92871 0.525391c-12.6934 2.71094 -20.7949 15.2002 -18.084 27.8936c62.1875 291.413 142.467 577.208 239.419 853.53c-4.81836 6.4873 -6.24414 15.2393 -2.83594 23.208c10.7188 25.0879 11.6982 43.2109 2.91504 53.8672
c-25.5352 30.9648 -121.116 28.9121 -284.088 -6.13477c-36.6533 -7.88184 -50.373 -10.8281 -58.1924 8.5791c-3.62012 8.97949 -1.9043 22.1191 10.4121 29.751c95.2988 59.0303 276.871 113.971 430.009 153.279c9.14355 22.9336 18.3965 45.7969 27.7754 68.5732
c4.95215 12.0039 18.6875 17.7158 30.6914 12.7793c11.9961 -4.94434 17.7236 -18.6875 12.7793 -30.6914c-4.99902 -12.1367 -9.87207 -24.3594 -14.8008 -36.543c33.2676 8.11719 64.3105 15.3486 91.585 21.499c101.309 22.8477 203.808 43.0469 288.631 56.8838
c135.579 22.1182 142.129 15.7402 151.202 6.90234c8.09375 -7.87402 9.75488 -20.2305 4.04297 -30.0322c-6.4873 -11.126 -20.7002 -14.9414 -31.873 -8.62598zM431.675 675.754c12.7715 34.5449 25.8242 68.9258 39.1201 103.142
c-77.168 -20.4023 -152.08 -42.5127 -217.645 -65.4697c78.8691 7.74902 146.173 1.71582 177.083 -35.7754c0.509766 -0.619141 0.956055 -1.26953 1.44141 -1.89648z" />
    <glyph glyph-name="U" unicode="U" horiz-adv-x="690" 
d="M786.331 844.688c11.9404 -20.0264 39.2891 -65.832 -244.642 -557.025c-21.3662 -94.2568 -39.5049 -187.691 -55.2539 -268.809l-1.62988 -8.36816c-7.88184 -40.6172 -15.4189 -83.6953 -14.0244 -125.958c0.806641 -0.422852 1.59766 -0.892578 2.36523 -1.40234
c10.7734 -7.24707 13.625 -21.8516 6.37793 -32.625c-6.80859 -10.1152 -18.5381 -14.6357 -29.8359 -11.4863c-17.6211 4.88086 -24.9785 25.2051 -25.6289 37.6787c-2.53906 49.291 5.82129 97.5479 14.5967 142.757l1.62207 8.36816
c8.13281 41.8789 16.6729 85.9043 25.8008 131.051c-143.768 -241.339 -295.84 -477.561 -319.745 -500.157c-8.47754 -8.00781 -30.5801 -28.8965 -53.9287 -28.9043c-6.33105 0 -12.748 1.53613 -19.0166 5.28125c-52.2451 31.2148 -15.4434 188.78 94.9775 597.947
c39.4893 146.337 80.3262 297.657 105.328 416.807c37.0449 176.534 22.3701 206.652 18.46 211.244c-10.9297 6.44043 -14.8076 20.458 -8.62598 31.6309c6.28418 11.3535 20.5908 15.4668 31.9521 9.18262c64.6553 -35.7832 18.6553 -235.023 -101.731 -681.11
c-36.3164 -134.576 -70.6191 -261.678 -92.9805 -363.684c-26.4824 -120.857 -25.9727 -162.956 -23.0342 -177.451c3.55762 2.24121 8.87793 6.20605 16.3135 13.2344c18.7656 18.4834 181.079 267.618 344.857 546.143c13.3672 22.7373 26.1074 44.5742 38.2676 65.5879
c52.7695 232.147 123.921 462.234 232.188 550.481c2.2334 1.81738 4.76465 3.2041 7.49121 4.10547c31.6387 10.4209 45.875 -8.47754 49.4795 -14.5186zM585.081 460.201c125.464 228.521 153.851 314.347 159.508 345.397
c-65.627 -65.0557 -117.566 -196.866 -159.508 -345.397z" />
    <glyph glyph-name="U" unicode="&#xdc;" horiz-adv-x="690" 
d="M786.331 844.688c11.9404 -20.0264 39.2891 -65.832 -244.642 -557.025c-21.3662 -94.2568 -39.5049 -187.691 -55.2539 -268.809l-1.62988 -8.36816c-7.88184 -40.6172 -15.4189 -83.6953 -14.0244 -125.958c0.806641 -0.422852 1.59766 -0.892578 2.36523 -1.40234
c10.7734 -7.24707 13.625 -21.8516 6.37793 -32.625c-6.80859 -10.1152 -18.5381 -14.6357 -29.8359 -11.4863c-17.6211 4.88086 -24.9785 25.2051 -25.6289 37.6787c-2.53906 49.291 5.82129 97.5479 14.5967 142.757l1.62207 8.36816
c8.13281 41.8789 16.6729 85.9043 25.8008 131.051c-143.768 -241.339 -295.84 -477.561 -319.745 -500.157c-8.47754 -8.00781 -30.5801 -28.8965 -53.9287 -28.9043c-6.33105 0 -12.748 1.53613 -19.0166 5.28125c-52.2451 31.2148 -15.4434 188.78 94.9775 597.947
c39.4893 146.337 80.3262 297.657 105.328 416.807c37.0449 176.534 22.3701 206.652 18.46 211.244c-10.9297 6.44043 -14.8076 20.458 -8.62598 31.6309c6.28418 11.3535 20.5908 15.4668 31.9521 9.18262c64.6553 -35.7832 18.6553 -235.023 -101.731 -681.11
c-36.3164 -134.576 -70.6191 -261.678 -92.9805 -363.684c-26.4824 -120.857 -25.9727 -162.956 -23.0342 -177.451c3.55762 2.24121 8.87793 6.20605 16.3135 13.2344c18.7656 18.4834 181.079 267.618 344.857 546.143c13.3672 22.7373 26.1074 44.5742 38.2676 65.5879
c52.7695 232.147 123.921 462.234 232.188 550.481c2.2334 1.81738 4.76465 3.2041 7.49121 4.10547c31.6387 10.4209 45.875 -8.47754 49.4795 -14.5186zM585.081 460.201c125.464 228.521 153.851 314.347 159.508 345.397
c-65.627 -65.0557 -117.566 -196.866 -159.508 -345.397z" />
    <glyph glyph-name="U" unicode="&#xdb;" horiz-adv-x="690" 
d="M786.331 844.688c11.9404 -20.0264 39.2891 -65.832 -244.642 -557.025c-21.3662 -94.2568 -39.5049 -187.691 -55.2539 -268.809l-1.62988 -8.36816c-7.88184 -40.6172 -15.4189 -83.6953 -14.0244 -125.958c0.806641 -0.422852 1.59766 -0.892578 2.36523 -1.40234
c10.7734 -7.24707 13.625 -21.8516 6.37793 -32.625c-6.80859 -10.1152 -18.5381 -14.6357 -29.8359 -11.4863c-17.6211 4.88086 -24.9785 25.2051 -25.6289 37.6787c-2.53906 49.291 5.82129 97.5479 14.5967 142.757l1.62207 8.36816
c8.13281 41.8789 16.6729 85.9043 25.8008 131.051c-143.768 -241.339 -295.84 -477.561 -319.745 -500.157c-8.47754 -8.00781 -30.5801 -28.8965 -53.9287 -28.9043c-6.33105 0 -12.748 1.53613 -19.0166 5.28125c-52.2451 31.2148 -15.4434 188.78 94.9775 597.947
c39.4893 146.337 80.3262 297.657 105.328 416.807c37.0449 176.534 22.3701 206.652 18.46 211.244c-10.9297 6.44043 -14.8076 20.458 -8.62598 31.6309c6.28418 11.3535 20.5908 15.4668 31.9521 9.18262c64.6553 -35.7832 18.6553 -235.023 -101.731 -681.11
c-36.3164 -134.576 -70.6191 -261.678 -92.9805 -363.684c-26.4824 -120.857 -25.9727 -162.956 -23.0342 -177.451c3.55762 2.24121 8.87793 6.20605 16.3135 13.2344c18.7656 18.4834 181.079 267.618 344.857 546.143c13.3672 22.7373 26.1074 44.5742 38.2676 65.5879
c52.7695 232.147 123.921 462.234 232.188 550.481c2.2334 1.81738 4.76465 3.2041 7.49121 4.10547c31.6387 10.4209 45.875 -8.47754 49.4795 -14.5186zM585.081 460.201c125.464 228.521 153.851 314.347 159.508 345.397
c-65.627 -65.0557 -117.566 -196.866 -159.508 -345.397z" />
    <glyph glyph-name="U" unicode="&#xda;" horiz-adv-x="690" 
d="M786.331 844.688c11.9404 -20.0264 39.2891 -65.832 -244.642 -557.025c-21.3662 -94.2568 -39.5049 -187.691 -55.2539 -268.809l-1.62988 -8.36816c-7.88184 -40.6172 -15.4189 -83.6953 -14.0244 -125.958c0.806641 -0.422852 1.59766 -0.892578 2.36523 -1.40234
c10.7734 -7.24707 13.625 -21.8516 6.37793 -32.625c-6.80859 -10.1152 -18.5381 -14.6357 -29.8359 -11.4863c-17.6211 4.88086 -24.9785 25.2051 -25.6289 37.6787c-2.53906 49.291 5.82129 97.5479 14.5967 142.757l1.62207 8.36816
c8.13281 41.8789 16.6729 85.9043 25.8008 131.051c-143.768 -241.339 -295.84 -477.561 -319.745 -500.157c-8.47754 -8.00781 -30.5801 -28.8965 -53.9287 -28.9043c-6.33105 0 -12.748 1.53613 -19.0166 5.28125c-52.2451 31.2148 -15.4434 188.78 94.9775 597.947
c39.4893 146.337 80.3262 297.657 105.328 416.807c37.0449 176.534 22.3701 206.652 18.46 211.244c-10.9297 6.44043 -14.8076 20.458 -8.62598 31.6309c6.28418 11.3535 20.5908 15.4668 31.9521 9.18262c64.6553 -35.7832 18.6553 -235.023 -101.731 -681.11
c-36.3164 -134.576 -70.6191 -261.678 -92.9805 -363.684c-26.4824 -120.857 -25.9727 -162.956 -23.0342 -177.451c3.55762 2.24121 8.87793 6.20605 16.3135 13.2344c18.7656 18.4834 181.079 267.618 344.857 546.143c13.3672 22.7373 26.1074 44.5742 38.2676 65.5879
c52.7695 232.147 123.921 462.234 232.188 550.481c2.2334 1.81738 4.76465 3.2041 7.49121 4.10547c31.6387 10.4209 45.875 -8.47754 49.4795 -14.5186zM585.081 460.201c125.464 228.521 153.851 314.347 159.508 345.397
c-65.627 -65.0557 -117.566 -196.866 -159.508 -345.397z" />
    <glyph glyph-name="V" unicode="V" horiz-adv-x="613" 
d="M109.02 -172.91c-33.4248 47.9043 -44.3311 111.347 -50.5918 167.086c-22.6201 201.505 5.03809 452.958 27.2588 655.003c10.0371 91.248 18.7031 170.054 21.876 233.322c0.650391 12.9668 11.8467 23.0742 24.6494 22.2988
c12.9668 -0.650391 22.9492 -11.6826 22.2988 -24.6494c-3.24414 -64.6709 -11.9727 -144.119 -22.0957 -236.111c-21.9619 -199.733 -49.2988 -448.304 -27.2666 -644.621c5.59473 -49.8711 15.0127 -106.144 42.4199 -145.421
c8.9082 -12.7559 14.7998 -14.8555 16.3906 -15.2002c4.77148 0.258789 35.8457 9.61426 128.817 174.976c52.5664 93.4971 111.455 211.831 173.847 339.215c52.1504 453.131 241.965 788.969 324.484 813.814c15.8037 4.74023 31.082 0.603516 40.876 -11.1025
c12.6533 -15.1221 22.7529 -46.2432 -11.7529 -153.507c-27.1562 -84.416 -77.6455 -200.165 -146.022 -334.749c-42.498 -83.6406 -86.8604 -174.474 -129.766 -262.313c-11.0244 -22.5732 -21.7354 -44.457 -32.1484 -65.6748
c-0.822266 -3.95703 -2.62402 -7.49805 -5.10742 -10.4131c-184.338 -375.21 -274.411 -537.187 -343.807 -537.202c-3.11816 0 -6.18945 0.329102 -9.22949 0.979492c-16.54 3.52539 -31.7246 15.0586 -45.1309 34.2705zM661.641 904.268
c-54.8613 -121.821 -98.1826 -263.535 -125.974 -410.037c32.3047 65.9717 64.9541 132.179 96.624 194.508c140.288 276.11 166.355 394.476 164.671 428.802c-21.6953 -15.9443 -73.9482 -77.0195 -135.321 -213.272z" />
    <glyph glyph-name="W" unicode="W" horiz-adv-x="1012" 
d="M523.536 -100.027c-9.7002 51.7588 -5.21484 104.55 0.46582 149.367c9.79395 77.3955 26.209 153.13 44.9111 227.298c-38.4004 -65.1416 -72.9219 -134.436 -106.746 -202.312c-47.9355 -96.2002 -97.5088 -195.684 -157.792 -283.367
c-41.5654 -60.4561 -83.0762 -90.9033 -123.756 -90.9111c-9.30859 0 -18.5771 1.59863 -27.791 4.78711c-45.0996 15.6309 -69.3809 66.1289 -81.8076 105.735c-27.6582 88.1299 -28.0186 191.569 -1.13574 325.551c32.9316 164.107 95.1738 333.832 184.996 504.45
c95.1426 180.702 189.29 297.133 296.295 366.396c10.9062 7.06738 25.4561 3.93359 32.5078 -6.95703c7.05957 -10.8984 3.94141 -25.4561 -6.95703 -32.5078c-99.9688 -64.7031 -189.016 -175.547 -280.248 -348.829
c-87.7305 -166.646 -148.461 -332.108 -180.507 -491.805c-25.2686 -125.911 -25.2998 -221.946 -0.109375 -302.226c12.8105 -40.8213 31.8887 -68.3066 52.3467 -75.3896c35.4072 -12.2852 76.2441 37.5391 97.415 68.3232
c58.4189 84.9727 107.24 182.951 154.455 277.702c56.1543 112.693 114.221 229.226 189.634 326.938c6.86328 8.89258 19.0547 11.6895 29.1074 6.66699c10.0449 -5.01465 15.1455 -16.4385 12.168 -27.2666c-31.8809 -115.866 -64.8516 -235.674 -80.3574 -358.192
c-5.20996 -41.1895 -9.38574 -89.415 -0.884766 -134.796c5.34375 -28.5117 18.3506 -45.1221 23.7881 -44.6445c1.32422 0.109375 5.35156 1.32422 14.4326 10.0527c34.6865 33.3389 58.7559 84.4863 78.6025 129.82c35.6182 81.3682 75.5303 168.064 117.785 259.854
c27.7441 60.2676 55.8564 121.335 83.1543 181.814c-0.0703125 1.49609 0.0078125 3.01562 0.235352 4.54395c31.6777 212.364 72.8203 353.859 101.756 435.165c25.5039 71.6758 63.6064 159.492 100.268 170.83c12.0508 3.72949 24.2656 0.548828 32.665 -8.50098
c38.0088 -40.9541 -27.8379 -228.903 -70.4688 -337.287c-57.0635 -145.068 -132.227 -308.329 -204.905 -466.215c-42.1611 -91.5771 -81.9795 -178.085 -117.426 -259.046c-21.6562 -49.4707 -48.1865 -105.547 -89.0859 -144.863
c-10.248 -9.84863 -24.3906 -21.3662 -42.8896 -22.9883c-39.7324 -3.55762 -65.918 39.0498 -74.1211 82.8096zM1086.14 987.381c-27.9951 -46.7363 -76.582 -160.902 -118.931 -360.213c14.4404 34.208 28.1914 67.7422 40.9941 100.305
c54.7051 139.066 73.29 219.745 77.9365 259.908z" />
    <glyph glyph-name="X" unicode="X" horiz-adv-x="643" 
d="M846.778 902.434c-154.721 -150.74 -296.557 -323.777 -422.154 -513.882c52.4561 -298.888 142.874 -621.289 192.377 -787.7c3.69824 -12.4346 -3.38477 -25.5273 -15.8271 -29.2256c-2.2334 -0.666016 -4.49023 -0.987305 -6.70801 -0.987305
c-10.1309 0 -19.4863 6.60547 -22.5186 16.8145c-56.75 190.739 -134.71 473.98 -184.988 742.742c-112.043 -177.349 -210.171 -368.55 -291.664 -569.71c-3.69824 -9.14355 -12.4971 -14.6904 -21.79 -14.6904c-2.93848 0 -5.92383 0.564453 -8.81543 1.73145
c-12.0352 4.87305 -17.8408 18.5771 -12.96 30.6045c89.1484 220.074 197.986 428.45 323.066 620.121c-28.2773 166.051 -44.1357 322.918 -35.4697 444.339c3.30664 46.2666 7.53027 91.248 22.7617 133.002c4.4502 12.1914 17.9424 18.46 30.1416 14.0254
c12.1992 -4.4502 18.4756 -17.9424 14.0254 -30.1416c-13.1475 -36.0342 -16.9785 -77.4355 -20.0342 -120.231c-7.49023 -105.015 4.60742 -239.678 27.1572 -383.163c120.435 176.604 254.862 338.04 400.596 480.028c9.28418 9.0498 24.1787 8.86133 33.2363 -0.439453
c9.05762 -9.29297 8.86914 -24.1797 -0.431641 -33.2373z" />
    <glyph glyph-name="Y" unicode="Y" horiz-adv-x="771" 
d="M791.102 522.084c-15.459 -7.12207 -37.4648 -20.3262 -63.9707 -37.8926c-44.8252 -212.662 -129.14 -412.114 -245.57 -576.989c-88.8662 -125.825 -176.558 -194.124 -268.111 -208.799c-9.80176 -1.5752 -19.3838 -2.35059 -28.6924 -2.35059
c-42.5293 0 -79.1191 16.1719 -102.978 46.251c-44.7227 56.3818 -36.9033 147.363 -9.31543 212.513c28.5986 67.5 74.3721 118.867 111.072 156.084c70.1328 71.1279 343.47 293.842 501.372 401.34c13.2959 66.8574 22.5889 134.984 27.6504 203.73
c3.12598 42.4512 5.34375 92.377 -1.84082 140.782c-2.55469 17.2764 -5.7832 23.3643 -8.05566 25.4326c-1.64551 1.52832 -9.62988 -0.673828 -18.7656 -7.81152c-23.3955 -18.2559 -43.0146 -46.8779 -59.5625 -72.2793
c-50.3174 -77.2158 -95.8789 -161.796 -139.943 -243.587c-47.9512 -89 -97.5322 -181.023 -153.875 -264.978c-28.4336 -42.3643 -63.4961 -90.127 -108 -123.152c-32.3203 -23.9912 -55.332 -19.0469 -68.9492 -10.6865
c-16.0703 9.86426 -26.1152 28.4727 -30.6992 56.8906c-8.65039 53.6865 1.08887 108.274 11.7451 154.604c51.9707 225.856 114.057 401.552 201.316 569.687c5.97852 11.5098 20.168 16.0225 31.6934 10.0361c11.5176 -5.97852 16.0146 -20.1602 10.0361 -31.6855
c-85.3643 -164.476 -146.188 -336.739 -197.234 -558.576c-9.64551 -41.8945 -18.5068 -90.8877 -11.1494 -136.582c2.76562 -17.1592 7.34961 -23.3643 8.88574 -24.3125c0.015625 0.03125 4.75586 -0.211914 16.3281 8.375
c38.7686 28.7705 70.7832 72.5615 96.9844 111.597c55.0732 82.0576 104.105 173.062 151.523 261.075c44.5117 82.6455 90.5508 168.104 141.941 246.964c18.624 28.5752 40.9307 60.9658 70.0225 83.6641c28.3867 22.1738 58.8184 24.2656 79.4014 5.46875
c15.2549 -13.9385 20.1123 -34.7412 22.8545 -53.2559c7.8584 -52.9424 5.53125 -106.104 2.22461 -151.124c-4.08984 -55.543 -10.8828 -110.749 -20.2461 -165.219c12.4502 7.44336 23.3096 13.3672 32.2334 17.4805c11.7998 5.44531 25.7461 0.282227 31.1836 -11.5098
c5.42969 -11.7842 0.282227 -25.7539 -11.5098 -31.1836zM443.153 -65.6797c103.776 146.956 181.227 322.433 226.819 510.327c-156.522 -111.948 -391.123 -304.027 -452.981 -366.756c-33.7539 -34.2314 -75.7656 -81.2344 -101.245 -141.408
c-21.4609 -50.6699 -29.7109 -123.905 2.85938 -164.97c24.916 -31.4346 65.4473 -30.2119 87.3936 -26.7021c78.3984 12.5752 155.975 74.5596 237.154 189.509z" />
    <glyph glyph-name="Y" unicode="&#x178;" horiz-adv-x="771" 
d="M791.102 522.084c-15.459 -7.12207 -37.4648 -20.3262 -63.9707 -37.8926c-44.8252 -212.662 -129.14 -412.114 -245.57 -576.989c-88.8662 -125.825 -176.558 -194.124 -268.111 -208.799c-9.80176 -1.5752 -19.3838 -2.35059 -28.6924 -2.35059
c-42.5293 0 -79.1191 16.1719 -102.978 46.251c-44.7227 56.3818 -36.9033 147.363 -9.31543 212.513c28.5986 67.5 74.3721 118.867 111.072 156.084c70.1328 71.1279 343.47 293.842 501.372 401.34c13.2959 66.8574 22.5889 134.984 27.6504 203.73
c3.12598 42.4512 5.34375 92.377 -1.84082 140.782c-2.55469 17.2764 -5.7832 23.3643 -8.05566 25.4326c-1.64551 1.52832 -9.62988 -0.673828 -18.7656 -7.81152c-23.3955 -18.2559 -43.0146 -46.8779 -59.5625 -72.2793
c-50.3174 -77.2158 -95.8789 -161.796 -139.943 -243.587c-47.9512 -89 -97.5322 -181.023 -153.875 -264.978c-28.4336 -42.3643 -63.4961 -90.127 -108 -123.152c-32.3203 -23.9912 -55.332 -19.0469 -68.9492 -10.6865
c-16.0703 9.86426 -26.1152 28.4727 -30.6992 56.8906c-8.65039 53.6865 1.08887 108.274 11.7451 154.604c51.9707 225.856 114.057 401.552 201.316 569.687c5.97852 11.5098 20.168 16.0225 31.6934 10.0361c11.5176 -5.97852 16.0146 -20.1602 10.0361 -31.6855
c-85.3643 -164.476 -146.188 -336.739 -197.234 -558.576c-9.64551 -41.8945 -18.5068 -90.8877 -11.1494 -136.582c2.76562 -17.1592 7.34961 -23.3643 8.88574 -24.3125c0.015625 0.03125 4.75586 -0.211914 16.3281 8.375
c38.7686 28.7705 70.7832 72.5615 96.9844 111.597c55.0732 82.0576 104.105 173.062 151.523 261.075c44.5117 82.6455 90.5508 168.104 141.941 246.964c18.624 28.5752 40.9307 60.9658 70.0225 83.6641c28.3867 22.1738 58.8184 24.2656 79.4014 5.46875
c15.2549 -13.9385 20.1123 -34.7412 22.8545 -53.2559c7.8584 -52.9424 5.53125 -106.104 2.22461 -151.124c-4.08984 -55.543 -10.8828 -110.749 -20.2461 -165.219c12.4502 7.44336 23.3096 13.3672 32.2334 17.4805c11.7998 5.44531 25.7461 0.282227 31.1836 -11.5098
c5.42969 -11.7842 0.282227 -25.7539 -11.5098 -31.1836zM443.153 -65.6797c103.776 146.956 181.227 322.433 226.819 510.327c-156.522 -111.948 -391.123 -304.027 -452.981 -366.756c-33.7539 -34.2314 -75.7656 -81.2344 -101.245 -141.408
c-21.4609 -50.6699 -29.7109 -123.905 2.85938 -164.97c24.916 -31.4346 65.4473 -30.2119 87.3936 -26.7021c78.3984 12.5752 155.975 74.5596 237.154 189.509z" />
    <glyph glyph-name="Y" unicode="&#xdd;" horiz-adv-x="771" 
d="M791.102 522.084c-15.459 -7.12207 -37.4648 -20.3262 -63.9707 -37.8926c-44.8252 -212.662 -129.14 -412.114 -245.57 -576.989c-88.8662 -125.825 -176.558 -194.124 -268.111 -208.799c-9.80176 -1.5752 -19.3838 -2.35059 -28.6924 -2.35059
c-42.5293 0 -79.1191 16.1719 -102.978 46.251c-44.7227 56.3818 -36.9033 147.363 -9.31543 212.513c28.5986 67.5 74.3721 118.867 111.072 156.084c70.1328 71.1279 343.47 293.842 501.372 401.34c13.2959 66.8574 22.5889 134.984 27.6504 203.73
c3.12598 42.4512 5.34375 92.377 -1.84082 140.782c-2.55469 17.2764 -5.7832 23.3643 -8.05566 25.4326c-1.64551 1.52832 -9.62988 -0.673828 -18.7656 -7.81152c-23.3955 -18.2559 -43.0146 -46.8779 -59.5625 -72.2793
c-50.3174 -77.2158 -95.8789 -161.796 -139.943 -243.587c-47.9512 -89 -97.5322 -181.023 -153.875 -264.978c-28.4336 -42.3643 -63.4961 -90.127 -108 -123.152c-32.3203 -23.9912 -55.332 -19.0469 -68.9492 -10.6865
c-16.0703 9.86426 -26.1152 28.4727 -30.6992 56.8906c-8.65039 53.6865 1.08887 108.274 11.7451 154.604c51.9707 225.856 114.057 401.552 201.316 569.687c5.97852 11.5098 20.168 16.0225 31.6934 10.0361c11.5176 -5.97852 16.0146 -20.1602 10.0361 -31.6855
c-85.3643 -164.476 -146.188 -336.739 -197.234 -558.576c-9.64551 -41.8945 -18.5068 -90.8877 -11.1494 -136.582c2.76562 -17.1592 7.34961 -23.3643 8.88574 -24.3125c0.015625 0.03125 4.75586 -0.211914 16.3281 8.375
c38.7686 28.7705 70.7832 72.5615 96.9844 111.597c55.0732 82.0576 104.105 173.062 151.523 261.075c44.5117 82.6455 90.5508 168.104 141.941 246.964c18.624 28.5752 40.9307 60.9658 70.0225 83.6641c28.3867 22.1738 58.8184 24.2656 79.4014 5.46875
c15.2549 -13.9385 20.1123 -34.7412 22.8545 -53.2559c7.8584 -52.9424 5.53125 -106.104 2.22461 -151.124c-4.08984 -55.543 -10.8828 -110.749 -20.2461 -165.219c12.4502 7.44336 23.3096 13.3672 32.2334 17.4805c11.7998 5.44531 25.7461 0.282227 31.1836 -11.5098
c5.42969 -11.7842 0.282227 -25.7539 -11.5098 -31.1836zM443.153 -65.6797c103.776 146.956 181.227 322.433 226.819 510.327c-156.522 -111.948 -391.123 -304.027 -452.981 -366.756c-33.7539 -34.2314 -75.7656 -81.2344 -101.245 -141.408
c-21.4609 -50.6699 -29.7109 -123.905 2.85938 -164.97c24.916 -31.4346 65.4473 -30.2119 87.3936 -26.7021c78.3984 12.5752 155.975 74.5596 237.154 189.509z" />
    <glyph glyph-name="Z" unicode="Z" horiz-adv-x="991" 
d="M929.203 825.069c3.65137 -45.624 -4.42578 -89.793 -12.8174 -126.971c-14.166 -62.8223 -34.4043 -126.632 -60.9736 -192.274c21.5234 -0.196289 43.0391 -1.48145 64.46 -3.94141c12.8965 -1.48047 22.1494 -13.1396 20.6689 -26.0361
s-13.1396 -22.126 -26.0361 -20.6689c-26.2871 3.02441 -52.7305 4.13672 -79.1582 3.46289c-24.1084 -54.1719 -52.4248 -109.691 -85.2852 -167.068c-14.3379 -25.0332 -28.8877 -49.3457 -43.6572 -72.9453c15.8428 -2.27246 31.4111 -5.08496 46.7441 -8.44629
c12.6777 -2.78125 20.7012 -15.3174 17.9277 -27.9951c-2.78125 -12.6777 -15.3096 -20.7012 -27.9951 -17.9355c-21.0684 4.62305 -42.6777 8.13281 -64.8906 10.5459c-74.0342 -111.737 -153.036 -205.79 -235.799 -280.6
c-85.7324 -77.5049 -160.534 -118.796 -235.407 -129.969c-10.8594 -1.62988 -21.1631 -2.44434 -30.9336 -2.44434c-19.9873 0 -37.7969 3.4082 -53.9219 10.248c-31.1523 13.249 -55.8799 40.7578 -66.1514 73.5869c-18.5068 59.1709 10.1855 119.972 28.9355 150.952
c39.6768 65.5566 98.2051 119.635 169.254 156.397c55.7236 28.8174 119.878 48.1387 201.912 60.792c71.2061 10.9854 136.763 14.4248 198.136 10.3193c18.6787 29.1074 37.0439 59.4062 55.0566 90.8564c27.7207 48.3975 51.8604 94.75 72.8662 139.842
c-65.8623 -7.80371 -130.941 -26.8506 -192.604 -56.8516c-3.31445 -1.61426 -6.82422 -2.37402 -10.2715 -2.37402c-8.71289 0 -17.0811 4.86523 -21.1475 13.2256c-5.68066 11.667 -0.823242 25.7393 10.8516 31.4199c74.9668 36.4805 154.689 57.9883 235.109 63.9355
c29.4443 69.7012 51.2656 136.88 66.4658 204.302c7.61621 33.7461 14.9658 73.5488 11.8242 112.889c-3.04785 38.04 -16.5791 71.0186 -36.2061 88.2246c-16.6025 14.5576 -39.6377 20.418 -72.6084 18.4434c-53.624 -3.2207 -110.805 -22.2207 -174.826 -58.1055
c-118.585 -66.4658 -223.944 -169.506 -304.678 -297.994c-18.3418 -29.2012 -38.3135 -64.3262 -47.3164 -103.471c-3.43164 -14.8945 -4.01953 -26.3887 -1.79395 -35.1172c1.30078 -5.1084 3.78418 -8.32129 5.09277 -9.48828
c12.1602 -0.344727 22.1895 -10.0059 22.7852 -22.3545c0.634766 -12.9746 -9.37109 -23.9912 -22.3379 -24.626c-23.0195 -1.00293 -44.0879 17.3232 -51.1006 44.8643c-4.17578 16.3838 -3.69043 34.585 1.52734 57.2676c10.585 45.9609 32.8994 85.4111 53.334 117.935
c84.9014 135.125 196.066 243.696 321.491 313.993c70.3516 39.4189 134.13 60.3623 194.993 64.0137c45.4678 2.71094 80.2637 -7.09082 106.409 -30.0166c29.0371 -25.4561 48.0137 -69.1289 52.0723 -119.822zM410.861 -70.9375
c74.3164 67.1787 145.679 150.717 213.132 249.385c-6.89453 0.196289 -13.8525 0.290039 -20.873 0.290039c-44.0098 0 -90.4404 -3.81543 -139.88 -11.4395c-76.8477 -11.8545 -136.41 -29.6797 -187.464 -56.0918c-63.3633 -32.7822 -115.459 -80.8428 -150.646 -138.987
c-11.792 -19.4863 -37.7734 -69.4668 -24.2891 -112.576c6.20508 -19.8467 21.0293 -36.4258 39.6689 -44.3467c16.0068 -6.78516 34.9443 -8.25 59.5391 -4.58301c65.2744 9.73926 132.265 47.3398 210.812 118.35z" />
    <glyph glyph-name="bracketleft" unicode="[" horiz-adv-x="574" 
d="M513.094 842.445c10.8438 -7.12988 13.8516 -21.7119 6.71387 -32.5635c-7.12988 -10.8438 -21.7031 -13.8682 -32.5547 -6.73047c-23.0508 15.1611 -52.5576 11.6201 -73.415 -8.79785c-14.3779 -14.0645 -25.1592 -35.2275 -34.9766 -55.709
c-27.8535 -58.0898 -52.3779 -120.332 -76.0947 -180.537c-64.9453 -164.859 -132.093 -335.298 -176.134 -513.445c-12.1367 -49.1338 -26.4355 -114.009 -29.2637 -180.012c-1.87305 -43.7441 3.66602 -74.3174 16.9385 -93.4668
c13.625 -19.6426 34.5762 -24.751 45.8506 -26.0439c19.7441 -2.25684 41.5254 2.22461 62.5703 6.58105c12.6533 2.60938 25.1426 -5.54688 27.7754 -18.2559c2.63281 -12.7168 -5.53906 -25.1514 -18.2559 -27.7842c-18.7256 -3.87793 -39.457 -8.16406 -60.9023 -8.16406
c-5.47656 0 -11 0.274414 -16.5547 0.916992c-33.1035 3.80762 -61.2002 20.1279 -79.1191 45.9688c-19.6035 28.2852 -27.6426 67.1396 -25.2686 122.268c3.00879 70.1641 17.9268 138.009 30.5957 189.274c44.7939 181.188 112.529 353.106 178.023 519.36
c24.0381 61.0049 48.876 124.062 77.459 183.672c11.1182 23.1924 24.6494 49.5654 44.4805 68.9805c36.4883 35.7051 90.8018 41.6445 132.132 14.4883z" />
    <glyph glyph-name="backslash" unicode="\" horiz-adv-x="244" 
d="M193.577 -188.363c2.82812 -12.6699 -5.1377 -25.2354 -17.8076 -28.0635c-1.72363 -0.391602 -3.44727 -0.572266 -5.14746 -0.572266c-10.7656 0 -20.4736 7.43555 -22.918 18.3809c-69.7881 312.152 -102.469 634.788 -97.1406 958.96
c0.211914 12.8496 10.6953 23.1211 23.498 23.1211h0.390625c12.9824 -0.219727 23.3252 -10.9072 23.1133 -23.8896c-5.26562 -320.466 27.0312 -639.396 96.0117 -947.937z" />
    <glyph glyph-name="bracketright" unicode="]" horiz-adv-x="542" 
d="M491.942 735.996c1.78613 -43.4307 -3.12207 -86.9316 -8.69238 -127.502c-26.0986 -190.222 -73.8848 -374.426 -142.02 -547.496c-34.8662 -88.5762 -66.6689 -151.782 -103.103 -204.943c-16.6338 -24.2656 -39.7158 -54.6348 -70.7588 -74.2148
c-20.2852 -12.7793 -41.7383 -19.2666 -62.3916 -19.2666c-14.6201 0 -28.833 3.25195 -41.9648 9.80176c-11.6191 5.79785 -16.3281 19.917 -10.5381 31.5283c5.79785 11.6113 19.9014 16.3359 31.5283 10.5303c23.6152 -11.792 48.6328 1.08887 58.2861 7.17676
c18.5459 11.6982 36.1436 30.5186 57.0557 61.0361c34.3496 50.1211 64.625 110.437 98.1436 195.589c66.7637 169.584 113.587 350.146 139.192 536.669c5.26562 38.3926 9.91992 79.4014 8.29004 119.149c-1.01855 24.8535 -5.375 41.832 -12.9277 50.4824
c-8.7207 9.9668 -21.7188 7.41992 -26.9053 5.85254c-13.5781 -4.08203 -27.5557 -15.083 -41.0791 -25.7148c-10.1934 -8.02344 -24.9863 -6.26074 -33.002 3.94043c-8.02344 10.2012 -6.26855 24.9863 3.94043 33.0098c16.1719 12.7246 34.498 27.1416 56.6162 33.7939
c28.5273 8.56348 57.5957 0.939453 75.8281 -19.9414c19.9717 -22.8555 23.5527 -56.3037 24.501 -79.4805z" />
    <glyph glyph-name="asciicircum" unicode="^" horiz-adv-x="343" 
d="M274.121 698.96c10.9062 -6.19727 22.7168 -20.4814 16.9893 -53.2793c-12.3799 -70.8379 -28.2461 -141.479 -47.1758 -209.967c-2.88379 -10.4209 -12.3408 -17.2529 -22.6445 -17.2529c-2.06836 0 -4.17578 0.274414 -6.27539 0.854492
c-12.5049 3.45508 -19.8467 16.4062 -16.3916 28.9189c17.3467 62.7676 32.0693 127.399 43.8223 192.306c-37.9453 -34.1377 -69.623 -78.9941 -102.907 -126.131c-15.2705 -21.625 -31.0664 -43.9941 -47.4658 -65.1182
c-7.96094 -10.2559 -22.7305 -12.1133 -32.9785 -4.15234c-10.2559 7.96094 -12.1133 22.7227 -4.15234 32.9785c15.749 20.2852 31.2236 42.208 46.1963 63.4102c38.666 54.752 78.6406 111.369 130.399 151.062c18.9219 14.5107 33.5967 11.4707 42.584 6.37012z" />
    <glyph glyph-name="underscore" unicode="_" horiz-adv-x="447" 
d="M372.21 -14.8857c12.7246 0.673828 23.8506 -9.70898 24.2891 -22.6914c0.446289 -12.9746 -9.71582 -23.8496 -22.6904 -24.2881c-98.793 -3.36914 -198.589 -12.9668 -296.606 -28.543c-1.25391 -0.204102 -2.49219 -0.297852 -3.72266 -0.297852
c-11.3535 0 -21.3438 8.25 -23.1846 19.8223c-2.03711 12.8262 6.70703 24.8691 19.5254 26.9062c99.9297 15.8818 201.669 25.668 302.39 29.0918z" />
    <glyph glyph-name="grave" unicode="`" horiz-adv-x="165" 
d="M97.1943 729.023c12.5596 -3.27539 20.0908 -16.1162 16.792 -28.6836c-11.0791 -42.4902 -20.6221 -83.9385 -15.5762 -123.882c1.41016 -11.165 3.49414 -13.8682 3.72168 -14.1426c8.85352 -9.49609 8.32812 -24.3594 -1.16797 -33.2129
c-4.52832 -4.21484 -10.2871 -6.30664 -16.0225 -6.30664c-6.29199 0 -12.5762 2.51465 -17.207 7.48242c-11.2666 12.0898 -14.5029 28.7861 -15.96 40.2959c-6.08008 48.249 4.4502 94.5312 16.7432 141.636c3.27539 12.5674 16.0625 20.0967 28.6768 16.8135z" />
    <glyph glyph-name="a" unicode="a" horiz-adv-x="391" 
d="M433.331 285.182c9.80176 -8.50098 10.8604 -23.3418 2.375 -33.1514c-51.8926 -59.8604 -105.548 -121.742 -170.572 -164.671c-16.6807 -11.0166 -36.707 -22.1426 -59.499 -22.1426c-0.963867 0 -1.93555 0.015625 -2.90723 0.0625
c-13.2959 0.556641 -25.2676 5.10059 -34.623 13.1318c-12.0664 10.3896 -20.0586 26.8828 -22.5264 46.4785c-1.95898 15.584 -0.250977 30.8311 1.67676 43.6963c2.54688 16.9863 6.12793 33.9961 10.5 50.9434c-29.7422 -35.666 -60.1348 -64.8281 -86.4922 -75.6406
c-7.92871 -3.25977 -16.0381 -4.85059 -23.8887 -4.85059c-14.2207 0 -27.627 5.22559 -37.75 15.2471c-24.2969 24.0537 -19.0947 64.0049 -13.8369 85.6846c15.2393 62.752 51.4688 120.168 99.4199 157.526c19.0781 14.8711 36.0332 23.5371 53.3486 27.2744
c23.9678 5.17871 47.9355 -0.266602 65.8076 -14.9102c3.90234 -3.21289 7.5459 -6.83301 10.915 -10.8838c7.06738 11.6592 13.9619 23.3574 20.6299 34.9453c0.948242 1.65332 2.10742 3.10254 3.36914 4.42676c6.5498 10.0059 19.6895 13.665 30.4863 8
c11.4941 -6.0332 15.9209 -20.2383 9.8877 -31.7402c-40.1318 -76.4629 -82.9121 -166.324 -95.9023 -253.005c-1.52832 -10.1777 -2.77441 -20.9668 -1.52832 -30.8545c1.07324 -8.53223 4.14453 -14.6436 6.53418 -16.7041
c1.56738 -1.33984 4.09766 -1.72363 5.93066 -1.80176c10.6396 -0.266602 23.4189 7.00488 34.5371 14.3467c59.6338 39.3643 111.143 98.7783 160.95 156.226c8.50098 9.80957 23.3408 10.875 33.1582 2.36621zM53.4209 187.382
c34.7646 14.2676 91.3809 85.8809 144.072 167.257c-3.54102 8.31348 -7.9834 14.793 -12.9512 18.8672c-5.91602 4.84961 -12.6074 6.18164 -18.1699 6.18164c-3.10254 0 -5.84473 -0.407227 -7.9209 -0.861328c-10.0137 -2.16211 -21.249 -8.17188 -34.3574 -18.4043
c-39.7324 -30.957 -69.8506 -78.9004 -82.6221 -131.545c-5.13965 -21.1475 -3.27441 -36.7314 1.22266 -41.1816c2.65625 -2.63281 7.99219 -1.42578 10.7266 -0.313477z" />
    <glyph glyph-name="a" unicode="&#xe5;" horiz-adv-x="391" 
d="M433.331 285.182c9.80176 -8.50098 10.8604 -23.3418 2.375 -33.1514c-51.8926 -59.8604 -105.548 -121.742 -170.572 -164.671c-16.6807 -11.0166 -36.707 -22.1426 -59.499 -22.1426c-0.963867 0 -1.93555 0.015625 -2.90723 0.0625
c-13.2959 0.556641 -25.2676 5.10059 -34.623 13.1318c-12.0664 10.3896 -20.0586 26.8828 -22.5264 46.4785c-1.95898 15.584 -0.250977 30.8311 1.67676 43.6963c2.54688 16.9863 6.12793 33.9961 10.5 50.9434c-29.7422 -35.666 -60.1348 -64.8281 -86.4922 -75.6406
c-7.92871 -3.25977 -16.0381 -4.85059 -23.8887 -4.85059c-14.2207 0 -27.627 5.22559 -37.75 15.2471c-24.2969 24.0537 -19.0947 64.0049 -13.8369 85.6846c15.2393 62.752 51.4688 120.168 99.4199 157.526c19.0781 14.8711 36.0332 23.5371 53.3486 27.2744
c23.9678 5.17871 47.9355 -0.266602 65.8076 -14.9102c3.90234 -3.21289 7.5459 -6.83301 10.915 -10.8838c7.06738 11.6592 13.9619 23.3574 20.6299 34.9453c0.948242 1.65332 2.10742 3.10254 3.36914 4.42676c6.5498 10.0059 19.6895 13.665 30.4863 8
c11.4941 -6.0332 15.9209 -20.2383 9.8877 -31.7402c-40.1318 -76.4629 -82.9121 -166.324 -95.9023 -253.005c-1.52832 -10.1777 -2.77441 -20.9668 -1.52832 -30.8545c1.07324 -8.53223 4.14453 -14.6436 6.53418 -16.7041
c1.56738 -1.33984 4.09766 -1.72363 5.93066 -1.80176c10.6396 -0.266602 23.4189 7.00488 34.5371 14.3467c59.6338 39.3643 111.143 98.7783 160.95 156.226c8.50098 9.80957 23.3408 10.875 33.1582 2.36621zM53.4209 187.382
c34.7646 14.2676 91.3809 85.8809 144.072 167.257c-3.54102 8.31348 -7.9834 14.793 -12.9512 18.8672c-5.91602 4.84961 -12.6074 6.18164 -18.1699 6.18164c-3.10254 0 -5.84473 -0.407227 -7.9209 -0.861328c-10.0137 -2.16211 -21.249 -8.17188 -34.3574 -18.4043
c-39.7324 -30.957 -69.8506 -78.9004 -82.6221 -131.545c-5.13965 -21.1475 -3.27441 -36.7314 1.22266 -41.1816c2.65625 -2.63281 7.99219 -1.42578 10.7266 -0.313477z" />
    <glyph glyph-name="a" unicode="&#xe4;" horiz-adv-x="391" 
d="M433.331 285.182c9.80176 -8.50098 10.8604 -23.3418 2.375 -33.1514c-51.8926 -59.8604 -105.548 -121.742 -170.572 -164.671c-16.6807 -11.0166 -36.707 -22.1426 -59.499 -22.1426c-0.963867 0 -1.93555 0.015625 -2.90723 0.0625
c-13.2959 0.556641 -25.2676 5.10059 -34.623 13.1318c-12.0664 10.3896 -20.0586 26.8828 -22.5264 46.4785c-1.95898 15.584 -0.250977 30.8311 1.67676 43.6963c2.54688 16.9863 6.12793 33.9961 10.5 50.9434c-29.7422 -35.666 -60.1348 -64.8281 -86.4922 -75.6406
c-7.92871 -3.25977 -16.0381 -4.85059 -23.8887 -4.85059c-14.2207 0 -27.627 5.22559 -37.75 15.2471c-24.2969 24.0537 -19.0947 64.0049 -13.8369 85.6846c15.2393 62.752 51.4688 120.168 99.4199 157.526c19.0781 14.8711 36.0332 23.5371 53.3486 27.2744
c23.9678 5.17871 47.9355 -0.266602 65.8076 -14.9102c3.90234 -3.21289 7.5459 -6.83301 10.915 -10.8838c7.06738 11.6592 13.9619 23.3574 20.6299 34.9453c0.948242 1.65332 2.10742 3.10254 3.36914 4.42676c6.5498 10.0059 19.6895 13.665 30.4863 8
c11.4941 -6.0332 15.9209 -20.2383 9.8877 -31.7402c-40.1318 -76.4629 -82.9121 -166.324 -95.9023 -253.005c-1.52832 -10.1777 -2.77441 -20.9668 -1.52832 -30.8545c1.07324 -8.53223 4.14453 -14.6436 6.53418 -16.7041
c1.56738 -1.33984 4.09766 -1.72363 5.93066 -1.80176c10.6396 -0.266602 23.4189 7.00488 34.5371 14.3467c59.6338 39.3643 111.143 98.7783 160.95 156.226c8.50098 9.80957 23.3408 10.875 33.1582 2.36621zM53.4209 187.382
c34.7646 14.2676 91.3809 85.8809 144.072 167.257c-3.54102 8.31348 -7.9834 14.793 -12.9512 18.8672c-5.91602 4.84961 -12.6074 6.18164 -18.1699 6.18164c-3.10254 0 -5.84473 -0.407227 -7.9209 -0.861328c-10.0137 -2.16211 -21.249 -8.17188 -34.3574 -18.4043
c-39.7324 -30.957 -69.8506 -78.9004 -82.6221 -131.545c-5.13965 -21.1475 -3.27441 -36.7314 1.22266 -41.1816c2.65625 -2.63281 7.99219 -1.42578 10.7266 -0.313477z" />
    <glyph glyph-name="a" unicode="&#xe3;" horiz-adv-x="391" 
d="M433.331 285.182c9.80176 -8.50098 10.8604 -23.3418 2.375 -33.1514c-51.8926 -59.8604 -105.548 -121.742 -170.572 -164.671c-16.6807 -11.0166 -36.707 -22.1426 -59.499 -22.1426c-0.963867 0 -1.93555 0.015625 -2.90723 0.0625
c-13.2959 0.556641 -25.2676 5.10059 -34.623 13.1318c-12.0664 10.3896 -20.0586 26.8828 -22.5264 46.4785c-1.95898 15.584 -0.250977 30.8311 1.67676 43.6963c2.54688 16.9863 6.12793 33.9961 10.5 50.9434c-29.7422 -35.666 -60.1348 -64.8281 -86.4922 -75.6406
c-7.92871 -3.25977 -16.0381 -4.85059 -23.8887 -4.85059c-14.2207 0 -27.627 5.22559 -37.75 15.2471c-24.2969 24.0537 -19.0947 64.0049 -13.8369 85.6846c15.2393 62.752 51.4688 120.168 99.4199 157.526c19.0781 14.8711 36.0332 23.5371 53.3486 27.2744
c23.9678 5.17871 47.9355 -0.266602 65.8076 -14.9102c3.90234 -3.21289 7.5459 -6.83301 10.915 -10.8838c7.06738 11.6592 13.9619 23.3574 20.6299 34.9453c0.948242 1.65332 2.10742 3.10254 3.36914 4.42676c6.5498 10.0059 19.6895 13.665 30.4863 8
c11.4941 -6.0332 15.9209 -20.2383 9.8877 -31.7402c-40.1318 -76.4629 -82.9121 -166.324 -95.9023 -253.005c-1.52832 -10.1777 -2.77441 -20.9668 -1.52832 -30.8545c1.07324 -8.53223 4.14453 -14.6436 6.53418 -16.7041
c1.56738 -1.33984 4.09766 -1.72363 5.93066 -1.80176c10.6396 -0.266602 23.4189 7.00488 34.5371 14.3467c59.6338 39.3643 111.143 98.7783 160.95 156.226c8.50098 9.80957 23.3408 10.875 33.1582 2.36621zM53.4209 187.382
c34.7646 14.2676 91.3809 85.8809 144.072 167.257c-3.54102 8.31348 -7.9834 14.793 -12.9512 18.8672c-5.91602 4.84961 -12.6074 6.18164 -18.1699 6.18164c-3.10254 0 -5.84473 -0.407227 -7.9209 -0.861328c-10.0137 -2.16211 -21.249 -8.17188 -34.3574 -18.4043
c-39.7324 -30.957 -69.8506 -78.9004 -82.6221 -131.545c-5.13965 -21.1475 -3.27441 -36.7314 1.22266 -41.1816c2.65625 -2.63281 7.99219 -1.42578 10.7266 -0.313477z" />
    <glyph glyph-name="a" unicode="&#xe2;" horiz-adv-x="391" 
d="M433.331 285.182c9.80176 -8.50098 10.8604 -23.3418 2.375 -33.1514c-51.8926 -59.8604 -105.548 -121.742 -170.572 -164.671c-16.6807 -11.0166 -36.707 -22.1426 -59.499 -22.1426c-0.963867 0 -1.93555 0.015625 -2.90723 0.0625
c-13.2959 0.556641 -25.2676 5.10059 -34.623 13.1318c-12.0664 10.3896 -20.0586 26.8828 -22.5264 46.4785c-1.95898 15.584 -0.250977 30.8311 1.67676 43.6963c2.54688 16.9863 6.12793 33.9961 10.5 50.9434c-29.7422 -35.666 -60.1348 -64.8281 -86.4922 -75.6406
c-7.92871 -3.25977 -16.0381 -4.85059 -23.8887 -4.85059c-14.2207 0 -27.627 5.22559 -37.75 15.2471c-24.2969 24.0537 -19.0947 64.0049 -13.8369 85.6846c15.2393 62.752 51.4688 120.168 99.4199 157.526c19.0781 14.8711 36.0332 23.5371 53.3486 27.2744
c23.9678 5.17871 47.9355 -0.266602 65.8076 -14.9102c3.90234 -3.21289 7.5459 -6.83301 10.915 -10.8838c7.06738 11.6592 13.9619 23.3574 20.6299 34.9453c0.948242 1.65332 2.10742 3.10254 3.36914 4.42676c6.5498 10.0059 19.6895 13.665 30.4863 8
c11.4941 -6.0332 15.9209 -20.2383 9.8877 -31.7402c-40.1318 -76.4629 -82.9121 -166.324 -95.9023 -253.005c-1.52832 -10.1777 -2.77441 -20.9668 -1.52832 -30.8545c1.07324 -8.53223 4.14453 -14.6436 6.53418 -16.7041
c1.56738 -1.33984 4.09766 -1.72363 5.93066 -1.80176c10.6396 -0.266602 23.4189 7.00488 34.5371 14.3467c59.6338 39.3643 111.143 98.7783 160.95 156.226c8.50098 9.80957 23.3408 10.875 33.1582 2.36621zM53.4209 187.382
c34.7646 14.2676 91.3809 85.8809 144.072 167.257c-3.54102 8.31348 -7.9834 14.793 -12.9512 18.8672c-5.91602 4.84961 -12.6074 6.18164 -18.1699 6.18164c-3.10254 0 -5.84473 -0.407227 -7.9209 -0.861328c-10.0137 -2.16211 -21.249 -8.17188 -34.3574 -18.4043
c-39.7324 -30.957 -69.8506 -78.9004 -82.6221 -131.545c-5.13965 -21.1475 -3.27441 -36.7314 1.22266 -41.1816c2.65625 -2.63281 7.99219 -1.42578 10.7266 -0.313477z" />
    <glyph glyph-name="a" unicode="&#xe1;" horiz-adv-x="391" 
d="M433.331 285.182c9.80176 -8.50098 10.8604 -23.3418 2.375 -33.1514c-51.8926 -59.8604 -105.548 -121.742 -170.572 -164.671c-16.6807 -11.0166 -36.707 -22.1426 -59.499 -22.1426c-0.963867 0 -1.93555 0.015625 -2.90723 0.0625
c-13.2959 0.556641 -25.2676 5.10059 -34.623 13.1318c-12.0664 10.3896 -20.0586 26.8828 -22.5264 46.4785c-1.95898 15.584 -0.250977 30.8311 1.67676 43.6963c2.54688 16.9863 6.12793 33.9961 10.5 50.9434c-29.7422 -35.666 -60.1348 -64.8281 -86.4922 -75.6406
c-7.92871 -3.25977 -16.0381 -4.85059 -23.8887 -4.85059c-14.2207 0 -27.627 5.22559 -37.75 15.2471c-24.2969 24.0537 -19.0947 64.0049 -13.8369 85.6846c15.2393 62.752 51.4688 120.168 99.4199 157.526c19.0781 14.8711 36.0332 23.5371 53.3486 27.2744
c23.9678 5.17871 47.9355 -0.266602 65.8076 -14.9102c3.90234 -3.21289 7.5459 -6.83301 10.915 -10.8838c7.06738 11.6592 13.9619 23.3574 20.6299 34.9453c0.948242 1.65332 2.10742 3.10254 3.36914 4.42676c6.5498 10.0059 19.6895 13.665 30.4863 8
c11.4941 -6.0332 15.9209 -20.2383 9.8877 -31.7402c-40.1318 -76.4629 -82.9121 -166.324 -95.9023 -253.005c-1.52832 -10.1777 -2.77441 -20.9668 -1.52832 -30.8545c1.07324 -8.53223 4.14453 -14.6436 6.53418 -16.7041
c1.56738 -1.33984 4.09766 -1.72363 5.93066 -1.80176c10.6396 -0.266602 23.4189 7.00488 34.5371 14.3467c59.6338 39.3643 111.143 98.7783 160.95 156.226c8.50098 9.80957 23.3408 10.875 33.1582 2.36621zM53.4209 187.382
c34.7646 14.2676 91.3809 85.8809 144.072 167.257c-3.54102 8.31348 -7.9834 14.793 -12.9512 18.8672c-5.91602 4.84961 -12.6074 6.18164 -18.1699 6.18164c-3.10254 0 -5.84473 -0.407227 -7.9209 -0.861328c-10.0137 -2.16211 -21.249 -8.17188 -34.3574 -18.4043
c-39.7324 -30.957 -69.8506 -78.9004 -82.6221 -131.545c-5.13965 -21.1475 -3.27441 -36.7314 1.22266 -41.1816c2.65625 -2.63281 7.99219 -1.42578 10.7266 -0.313477z" />
    <glyph glyph-name="b" unicode="b" horiz-adv-x="395" 
d="M425.732 289.734c12.8965 -1.48828 22.1318 -13.1377 20.6357 -26.0342s-13.1709 -22.126 -26.0596 -20.6377c-22.4639 2.60156 -79.5273 6.87988 -139.38 -6.87891c-1.40234 -9.96582 -3.17285 -20.2139 -5.32715 -30.8145
c-13.375 -65.6895 -36.332 -112.026 -68.2207 -137.726c-18.1387 -14.6201 -37.6641 -20.9512 -56.4766 -18.3184c-22.8945 3.22852 -42.584 20.207 -51.3984 44.3154c-10.7188 29.3584 -3.52637 61.749 6.78516 82.2773c11.3848 22.6748 28.2539 38.0078 43.2656 50.0117
c27.2275 21.7812 57.4082 36.8008 87.8164 47.0176c0.461914 8.30566 0.579102 16.3682 0.367188 24.2422c-0.783203 29.0137 -7.50586 45.2168 -13.5391 50.7012c-5.23438 4.7793 -13.9863 2.24023 -20.3955 -0.698242
c-16.8379 -7.71777 -32.8525 -23.5449 -44.9189 -36.4727c-56.1465 -60.1191 -116.696 -180.201 -175.1 -347.239c-0.0078125 -0.015625 -0.015625 -0.0234375 -0.015625 -0.03125c-0.078125 -0.235352 -0.210938 -0.439453 -0.296875 -0.674805
c-0.399414 -1.02637 -0.830078 -2.0293 -1.35547 -2.96973c-0.211914 -0.383789 -0.478516 -0.728516 -0.713867 -1.10449c-0.469727 -0.751953 -0.955078 -1.48828 -1.50391 -2.16992c-0.290039 -0.360352 -0.611328 -0.689453 -0.916992 -1.02637
c-0.572266 -0.634766 -1.15234 -1.23828 -1.7793 -1.79492c-0.360352 -0.321289 -0.736328 -0.611328 -1.1123 -0.90918c-0.642578 -0.500977 -1.30078 -0.970703 -1.98242 -1.40137c-0.422852 -0.266602 -0.845703 -0.517578 -1.28418 -0.760742
c-0.705078 -0.383789 -1.42578 -0.712891 -2.16211 -1.02637c-0.461914 -0.196289 -0.908203 -0.392578 -1.37793 -0.556641c-0.830078 -0.290039 -1.66797 -0.501953 -2.52246 -0.698242c-0.407227 -0.09375 -0.806641 -0.21875 -1.22168 -0.289062
c-1.29297 -0.219727 -2.61719 -0.360352 -3.94922 -0.360352c-0.454102 0 -0.908203 0.09375 -1.3623 0.117188c-0.767578 0.0390625 -1.52734 0.0546875 -2.29492 0.171875l-0.09375 0.0234375c-1.33984 0.219727 -2.67969 0.548828 -4.00391 1.01074
c-0.078125 0.0234375 -0.140625 0.0703125 -0.21875 0.101562c-0.901367 0.321289 -1.72363 0.767578 -2.57031 1.19824c-0.556641 0.274414 -1.15234 0.501953 -1.67773 0.823242c-0.689453 0.422852 -1.29297 0.948242 -1.93555 1.43359
c-0.587891 0.446289 -1.21484 0.845703 -1.74805 1.33887c-0.508789 0.469727 -0.923828 1.01855 -1.38574 1.52832c-0.556641 0.611328 -1.14453 1.18359 -1.62988 1.8418c-0.422852 0.580078 -0.744141 1.22266 -1.1123 1.8418
c-0.399414 0.666016 -0.845703 1.30078 -1.18262 2.00586c-0.329102 0.697266 -0.533203 1.44922 -0.799805 2.17773c-0.250977 0.689453 -0.556641 1.35547 -0.737305 2.06836c-0.172852 0.681641 -0.227539 1.39453 -0.336914 2.0918
c-0.132812 0.822266 -0.313477 1.62109 -0.360352 2.45898c-0.03125 0.595703 0.046875 1.20703 0.0625 1.81836c0.0234375 0.963867 0.0234375 1.91992 0.164062 2.88379c0.015625 0.078125 0 0.15625 0.015625 0.234375c38.4863 244.089 119.917 488.772 242.036 727.251
c51.5166 100.604 122.3 220.544 166.913 220.567h0.015625c11.667 0 21.876 -6.2998 27.29 -16.8535c28.2852 -55.0967 -96.7637 -297.791 -297.336 -577.083c-1.55176 -2.16211 -3.40918 -3.97949 -5.46973 -5.45215
c-11.8779 -35.8066 -22.7061 -71.6758 -32.7197 -107.576c28.5439 54.1328 57.0713 96.7012 85.4189 127.062c15.0195 16.0781 35.375 35.9717 59.6797 47.1133c26.8828 12.3564 52.9971 9.70801 71.6289 -7.25488c22.5654 -20.5205 28.168 -57.126 28.8965 -84.2197
c0.109375 -4.34863 0.140625 -8.73633 0.0859375 -13.1631c58.2627 11.1182 111.957 7.83496 140.908 4.46582zM222.26 680.711c-30.5967 -59.7588 -58.5908 -119.894 -83.9453 -180.303c116.854 178.289 169.78 294.304 187.127 350.216
c-21.915 -27.2041 -56.6172 -78.9863 -103.182 -169.913zM229.54 214.738c0.352539 1.72363 0.689453 3.43945 1.02637 5.13184c-18.0918 -7.80371 -35.6035 -17.833 -51.626 -30.6592c-13.3984 -10.7266 -23.7412 -20.6768 -30.6357 -34.4121
c-7.19238 -14.3145 -9.09668 -32.8291 -4.63867 -45.0439c3.18066 -8.70508 9.22168 -13.249 13.79 -13.8916c5.46875 -0.783203 12.8887 2.28809 20.4336 8.36816c22.8086 18.3887 40.6729 56.6006 51.6504 110.507z" />
    <glyph glyph-name="c" unicode="c" horiz-adv-x="233" 
d="M272.581 285.613c10.6162 -7.47461 13.168 -22.1338 5.70898 -32.7822c-104.717 -148.742 -213.461 -167.884 -214.55 -168.057c-4.97559 -0.806641 -9.60645 -1.1748 -13.9082 -1.1748c-22.126 0 -35.6416 9.68457 -43.4062 18.6562
c-9.31641 10.7656 -15.3418 25.7461 -17.9277 44.5195c-2.91504 21.1943 -1.59082 44.1436 4.16016 72.2246c10.5459 51.4219 31.1602 99.5215 59.6172 139.097c20.583 28.6299 41.5498 46.1729 64.0996 53.6396c22.9336 7.59961 37.8125 -0.541016 44.6445 -6.08008
c10.7969 -8.7207 17.4258 -23.3877 18.1699 -40.2021c0.533203 -11.8857 -1.81738 -22.9727 -4.43457 -33.1816c-6.47949 -25.2998 -15.2783 -49.7217 -26.1299 -72.5928c-5.57031 -11.7295 -19.5957 -16.7285 -31.3174 -11.1582
c-11.7295 5.5625 -16.7207 19.5791 -11.1582 31.3086c9.56641 20.168 17.3311 41.7383 23.0742 64.1152c1.59082 6.22852 3.27539 13.374 3.00098 19.415c-0.0625 1.53613 -0.282227 2.86816 -0.548828 3.91797
c-0.171875 -0.0390625 -0.352539 -0.101562 -0.533203 -0.164062c-12.7949 -4.23145 -26.1143 -16.1562 -40.6953 -36.4414c-24.626 -34.2471 -42.5137 -76.1182 -51.7354 -121.1c-4.6543 -22.6982 -5.81348 -40.6172 -3.64355 -56.374
c1.79395 -13.0771 5.42188 -18.4443 6.89453 -20.1523c2.08398 -2.41309 6.87109 -3.0166 14.2285 -1.8418c23.1211 3.74512 106.472 39.1055 183.64 148.712c7.47461 10.624 22.1416 13.1553 32.75 5.69629z" />
    <glyph glyph-name="d" unicode="d" horiz-adv-x="301" 
d="M435.307 779.346c0.03125 -0.751953 0.128906 -1.49902 0.0664062 -2.2666c-0.0390625 -0.767578 -0.211914 -1.53516 -0.329102 -2.30273c-0.109375 -0.751953 -0.164062 -1.50391 -0.352539 -2.25586s-0.525391 -1.48047 -0.791992 -2.22461
c-0.258789 -0.705078 -0.422852 -1.41797 -0.751953 -2.10742c-22.1582 -46.6973 -42.624 -89.7041 -61.6318 -129.46c-76.1572 -165.995 -149.149 -353.287 -187.126 -552.786c-10.4834 -55.042 -20.1133 -119.776 -12.0352 -182.513
c4.31738 -33.5576 16.0312 -53.874 25.3633 -56.6006c12.4658 -3.64355 19.6113 -16.6973 15.9678 -29.1631c-3.00098 -10.2559 -12.3799 -16.916 -22.5498 -16.916c-2.18555 0 -4.40332 0.305664 -6.60547 0.948242c-42.0117 12.293 -54.877 65.2432 -58.8027 95.7295
c-8.91602 69.2783 1.30859 138.619 12.4814 197.312c10.1699 53.4199 22.8711 105.86 37.3115 157.298c-43.8691 -72.6631 -70.1719 -94.1475 -104.263 -108.141c-7.92871 -3.25977 -16.0381 -4.85059 -23.8887 -4.85059c-14.2207 0 -27.627 5.22559 -37.75 15.2549
c-24.2969 24.0537 -19.0947 63.9971 -13.8369 85.6768c15.2393 62.752 51.4688 120.168 99.4043 157.526c19.0781 14.8711 36.0332 23.5371 53.3486 27.2744c21.7734 4.70898 43.5869 0.634766 60.8008 -11.1572c31.6934 62.6025 70.7598 142.921 120.012 245.906
c20.4893 44.6055 41.166 87.7539 61.4824 129.1c0.329102 0.681641 0.783203 1.25391 1.16699 1.88086c0.415039 0.673828 0.783203 1.40234 1.26074 2.02148c0.493164 0.642578 1.07324 1.18359 1.62207 1.76367c0.509766 0.541016 0.979492 1.12891 1.52832 1.61426
c0.603516 0.533203 1.28516 0.948242 1.93555 1.41016c0.587891 0.415039 1.12891 0.876953 1.74805 1.2373c0.681641 0.391602 1.41797 0.666016 2.13086 0.995117c0.658203 0.297852 1.28516 0.650391 1.9668 0.885742
c0.720703 0.250977 1.47266 0.375977 2.2168 0.556641c0.720703 0.180664 1.42578 0.408203 2.16211 0.517578s1.49609 0.0859375 2.24805 0.125c0.767578 0.0390625 1.51953 0.132812 2.28711 0.09375c0.759766 -0.03125 1.51172 -0.211914 2.26367 -0.321289
c0.767578 -0.117188 1.54297 -0.164062 2.30273 -0.360352c0.767578 -0.196289 1.50391 -0.533203 2.25586 -0.807617c0.689453 -0.250977 1.39453 -0.415039 2.07617 -0.736328c0.046875 -0.0234375 0.0859375 -0.0546875 0.132812 -0.078125
c0.0546875 -0.0234375 0.109375 -0.03125 0.15625 -0.0546875c0.681641 -0.336914 1.25391 -0.783203 1.88867 -1.1748c0.681641 -0.415039 1.40234 -0.783203 2.02148 -1.26074c0.611328 -0.469727 1.12891 -1.02637 1.68555 -1.55176
c0.572266 -0.533203 1.18359 -1.01855 1.69336 -1.59863c0.500977 -0.572266 0.892578 -1.21484 1.33105 -1.82617c0.446289 -0.619141 0.939453 -1.20703 1.32324 -1.86523c0.375977 -0.642578 0.634766 -1.34766 0.948242 -2.02148
c0.313477 -0.689453 0.681641 -1.35547 0.932617 -2.06836c0.243164 -0.712891 0.368164 -1.45703 0.548828 -2.18555c0.172852 -0.736328 0.408203 -1.44922 0.517578 -2.19336c0.109375 -0.751953 0.0859375 -1.51953 0.125 -2.2793zM53.4326 187.381
c33.9658 13.9385 63.5352 48.2021 133.974 183.468c-0.932617 0.97168 -1.88086 1.85742 -2.85254 2.65625c-5.91602 4.84961 -12.6074 6.18164 -18.1777 6.18164c-3.09473 0 -5.83691 -0.407227 -7.91309 -0.861328c-10.0137 -2.16211 -21.249 -8.17188 -34.3574 -18.4043
c-39.7324 -30.957 -69.8428 -78.9004 -82.6221 -131.545c-5.13965 -21.1475 -3.2666 -36.7314 1.23047 -41.1816c2.66406 -2.64062 7.98438 -1.44141 10.7188 -0.313477z" />
    <glyph glyph-name="e" unicode="e" horiz-adv-x="246" 
d="M283.899 279.51c10.5225 -7.5918 12.9072 -22.2861 5.33105 -32.8164c-89.6816 -124.32 -162.572 -185.262 -221.916 -185.262c-7.00488 0 -13.8135 0.84668 -20.4502 2.54688c-16.5322 4.22266 -31.458 16.2734 -40.9619 33.0645
c-6.98145 12.333 -11.7061 27.3213 -14.4639 45.7969c-8.25781 55.4648 4.68555 118.178 35.5166 172.068c28.6689 50.1055 66.4658 80.6074 106.433 85.8887c12.9668 1.7002 24.1787 0.422852 34.2861 -3.96484c13.6484 -5.93164 24.249 -17.4648 29.1064 -31.6621
c6.68359 -19.4863 2.21777 -43.4697 -11.9561 -64.1465c-9.31641 -13.5781 -20.2617 -23.4189 -32.5469 -29.2637c-15.9131 -7.56055 -34.8818 -8.35938 -53.4043 -2.31836c-13.0381 4.27051 -24.3438 11.2363 -33.5029 17.8496
c-23.9678 -43.8848 -33.958 -93.7402 -27.4395 -137.531c1.88867 -12.6689 4.7959 -22.3457 8.87793 -29.5693c3.74512 -6.61328 8.49316 -9.84961 11.6816 -10.6641c18.7178 -4.77148 75.0215 1.67676 192.596 164.672c7.59961 10.5381 22.291 12.9199 32.8135 5.31152z
M139.54 354.19c-15.71 -2.07617 -32.001 -12.0508 -47.1543 -28.4258c6.06445 -4.39551 13.6172 -9.19043 21.0996 -11.6426c4.96777 -1.6377 12.2314 -2.93066 18.6016 0.09375c4.56836 2.16992 9.52832 6.92578 13.9551 13.3818
c5.46094 7.97656 8.03906 17.1592 6.26074 22.3301c-0.689453 2.01367 -2.19336 3.27539 -3.36035 3.78516c-2.01367 0.87793 -5.1709 1.02637 -9.40234 0.477539z" />
    <glyph glyph-name="e" unicode="&#xeb;" horiz-adv-x="246" 
d="M283.899 279.51c10.5225 -7.5918 12.9072 -22.2861 5.33105 -32.8164c-89.6816 -124.32 -162.572 -185.262 -221.916 -185.262c-7.00488 0 -13.8135 0.84668 -20.4502 2.54688c-16.5322 4.22266 -31.458 16.2734 -40.9619 33.0645
c-6.98145 12.333 -11.7061 27.3213 -14.4639 45.7969c-8.25781 55.4648 4.68555 118.178 35.5166 172.068c28.6689 50.1055 66.4658 80.6074 106.433 85.8887c12.9668 1.7002 24.1787 0.422852 34.2861 -3.96484c13.6484 -5.93164 24.249 -17.4648 29.1064 -31.6621
c6.68359 -19.4863 2.21777 -43.4697 -11.9561 -64.1465c-9.31641 -13.5781 -20.2617 -23.4189 -32.5469 -29.2637c-15.9131 -7.56055 -34.8818 -8.35938 -53.4043 -2.31836c-13.0381 4.27051 -24.3438 11.2363 -33.5029 17.8496
c-23.9678 -43.8848 -33.958 -93.7402 -27.4395 -137.531c1.88867 -12.6689 4.7959 -22.3457 8.87793 -29.5693c3.74512 -6.61328 8.49316 -9.84961 11.6816 -10.6641c18.7178 -4.77148 75.0215 1.67676 192.596 164.672c7.59961 10.5381 22.291 12.9199 32.8135 5.31152z
M139.54 354.19c-15.71 -2.07617 -32.001 -12.0508 -47.1543 -28.4258c6.06445 -4.39551 13.6172 -9.19043 21.0996 -11.6426c4.96777 -1.6377 12.2314 -2.93066 18.6016 0.09375c4.56836 2.16992 9.52832 6.92578 13.9551 13.3818
c5.46094 7.97656 8.03906 17.1592 6.26074 22.3301c-0.689453 2.01367 -2.19336 3.27539 -3.36035 3.78516c-2.01367 0.87793 -5.1709 1.02637 -9.40234 0.477539z" />
    <glyph glyph-name="e" unicode="&#xea;" horiz-adv-x="246" 
d="M283.899 279.51c10.5225 -7.5918 12.9072 -22.2861 5.33105 -32.8164c-89.6816 -124.32 -162.572 -185.262 -221.916 -185.262c-7.00488 0 -13.8135 0.84668 -20.4502 2.54688c-16.5322 4.22266 -31.458 16.2734 -40.9619 33.0645
c-6.98145 12.333 -11.7061 27.3213 -14.4639 45.7969c-8.25781 55.4648 4.68555 118.178 35.5166 172.068c28.6689 50.1055 66.4658 80.6074 106.433 85.8887c12.9668 1.7002 24.1787 0.422852 34.2861 -3.96484c13.6484 -5.93164 24.249 -17.4648 29.1064 -31.6621
c6.68359 -19.4863 2.21777 -43.4697 -11.9561 -64.1465c-9.31641 -13.5781 -20.2617 -23.4189 -32.5469 -29.2637c-15.9131 -7.56055 -34.8818 -8.35938 -53.4043 -2.31836c-13.0381 4.27051 -24.3438 11.2363 -33.5029 17.8496
c-23.9678 -43.8848 -33.958 -93.7402 -27.4395 -137.531c1.88867 -12.6689 4.7959 -22.3457 8.87793 -29.5693c3.74512 -6.61328 8.49316 -9.84961 11.6816 -10.6641c18.7178 -4.77148 75.0215 1.67676 192.596 164.672c7.59961 10.5381 22.291 12.9199 32.8135 5.31152z
M139.54 354.19c-15.71 -2.07617 -32.001 -12.0508 -47.1543 -28.4258c6.06445 -4.39551 13.6172 -9.19043 21.0996 -11.6426c4.96777 -1.6377 12.2314 -2.93066 18.6016 0.09375c4.56836 2.16992 9.52832 6.92578 13.9551 13.3818
c5.46094 7.97656 8.03906 17.1592 6.26074 22.3301c-0.689453 2.01367 -2.19336 3.27539 -3.36035 3.78516c-2.01367 0.87793 -5.1709 1.02637 -9.40234 0.477539z" />
    <glyph glyph-name="e" unicode="&#xe9;" horiz-adv-x="246" 
d="M283.899 279.51c10.5225 -7.5918 12.9072 -22.2861 5.33105 -32.8164c-89.6816 -124.32 -162.572 -185.262 -221.916 -185.262c-7.00488 0 -13.8135 0.84668 -20.4502 2.54688c-16.5322 4.22266 -31.458 16.2734 -40.9619 33.0645
c-6.98145 12.333 -11.7061 27.3213 -14.4639 45.7969c-8.25781 55.4648 4.68555 118.178 35.5166 172.068c28.6689 50.1055 66.4658 80.6074 106.433 85.8887c12.9668 1.7002 24.1787 0.422852 34.2861 -3.96484c13.6484 -5.93164 24.249 -17.4648 29.1064 -31.6621
c6.68359 -19.4863 2.21777 -43.4697 -11.9561 -64.1465c-9.31641 -13.5781 -20.2617 -23.4189 -32.5469 -29.2637c-15.9131 -7.56055 -34.8818 -8.35938 -53.4043 -2.31836c-13.0381 4.27051 -24.3438 11.2363 -33.5029 17.8496
c-23.9678 -43.8848 -33.958 -93.7402 -27.4395 -137.531c1.88867 -12.6689 4.7959 -22.3457 8.87793 -29.5693c3.74512 -6.61328 8.49316 -9.84961 11.6816 -10.6641c18.7178 -4.77148 75.0215 1.67676 192.596 164.672c7.59961 10.5381 22.291 12.9199 32.8135 5.31152z
M139.54 354.19c-15.71 -2.07617 -32.001 -12.0508 -47.1543 -28.4258c6.06445 -4.39551 13.6172 -9.19043 21.0996 -11.6426c4.96777 -1.6377 12.2314 -2.93066 18.6016 0.09375c4.56836 2.16992 9.52832 6.92578 13.9551 13.3818
c5.46094 7.97656 8.03906 17.1592 6.26074 22.3301c-0.689453 2.01367 -2.19336 3.27539 -3.36035 3.78516c-2.01367 0.87793 -5.1709 1.02637 -9.40234 0.477539z" />
    <glyph glyph-name="f" unicode="f" horiz-adv-x="245" 
d="M34.1758 194.733c-0.297852 -0.454102 -0.613281 -0.898438 -0.926758 -1.31348c-0.564453 -1.62207 -1.13672 -3.24414 -1.69336 -4.8584c37.209 17.6055 79.2686 34.2393 120.277 50.458c42.2314 16.6963 82.1201 32.4766 115.122 48.5234
c11.6904 5.65723 25.7393 0.807617 31.4199 -10.8672c5.67285 -11.6748 0.807617 -25.7393 -10.8672 -31.4199c-34.6074 -16.8223 -75.2949 -32.916 -118.381 -49.957c-37.2793 -14.7461 -75.4365 -29.8447 -109.315 -45.4443
c21.8291 -17.2217 37.2725 -42.4355 44.9277 -74.1992c16.8535 -69.9678 -6.94922 -160.84 -51.9854 -198.44c-13.6807 -11.416 -28.6455 -17.2295 -43.6895 -17.2295c-8.36035 0 -16.7441 1.78613 -24.9551 5.41406c-28.0654 12.3955 -45.8984 46.541 -50.2158 96.1455
c-3.03223 34.7568 3.50977 69.3643 10.3105 98.6289c30.8311 132.735 126.585 386.21 263.975 629.053c99.209 175.366 127.525 175.107 139.686 174.817c10.3428 -0.140625 19.4395 -5.73535 24.3281 -14.9648c5.30469 -10.0215 17.7236 -33.4717 -66.0811 -198.598
c-43.3994 -85.5127 -125.81 -233.997 -271.936 -455.748zM249.092 666.083c-43.2188 -76.3848 -82.2129 -153.726 -116.257 -227.838c91.0049 150.325 145.099 256.17 172.78 320.599c-15.1533 -22.5732 -33.9268 -52.8096 -56.5234 -92.7607zM59.0195 64.6484
c-7.39648 30.7061 -23.749 50.6143 -48.6494 59.3271c-8.50879 -27.7285 -15.333 -52.7383 -20.3711 -74.4258c-6.26855 -26.9609 -11.7295 -55.7939 -9.27734 -83.9219c2.60156 -29.9072 11.3848 -52.3623 22.3779 -57.2197
c2.89941 -1.28516 8.91699 -3.93359 19.5176 4.9043c28.0498 23.4189 50.0664 94.6328 36.4023 151.336z" />
    <glyph glyph-name="g" unicode="g" horiz-adv-x="318" 
d="M360.952 276.454c8.48535 -9.8252 7.39453 -24.665 -2.40723 -33.1426c-71.9736 -62.1328 -130.854 -120.23 -178.868 -173.212c-14.9258 -46.2588 -31.3096 -91.9531 -50.208 -135.963c-44.9658 -104.725 -96.0352 -173.557 -156.107 -210.429
c-4.36426 -2.67969 -9.15918 -3.97266 -13.876 -3.97266c-7.92871 0 -15.6309 3.65918 -20.6221 10.4912c-26.4512 36.1826 51.1328 165.761 60.0645 180.412c28.3555 46.5098 72.3809 108.979 139.05 183.405c13.4922 42.4512 25.8252 85.4502 37.8447 128.058
c-11.6748 -15.6699 -24.2109 -30.4395 -37.8438 -43.7588c-11.416 -11.1416 -27.0156 -24.7588 -46.541 -31.2852c-7.48242 -2.49902 -15.0508 -3.72168 -22.4395 -3.72168c-15.6152 0 -30.4473 5.46094 -42.043 15.9209c-15.8506 14.2988 -25.4482 37.71 -26.334 64.2402
c-0.626953 18.8125 2.79688 38.3535 10.7812 61.5146c22.4551 65.1494 65.8936 117.747 119.173 144.34c39.873 19.9092 78.0303 18.334 105.147 -4.10547c0.368164 1.12793 0.712891 2.28711 1.08887 3.41504c4.07422 12.3164 17.3701 19.0234 29.6943 14.9414
c12.3252 -4.07422 19.0166 -17.3701 14.9424 -29.6953c-19.3057 -58.3955 -36.4492 -119.408 -53.0283 -178.415c-6.12695 -21.8135 -12.3086 -43.7832 -18.6396 -65.8076c34.7021 34.584 73.8701 71.0957 118.021 109.206c9.81738 8.49316 24.665 7.4043 33.1504 -2.43652z
M86.25 -47.3184c1.18359 2.76562 2.36719 5.54785 3.54199 8.33691c-49.918 -67.5391 -78.8223 -121.586 -94.3203 -158.38c32.6729 34.9287 62.666 84.5645 90.7783 150.043zM105.109 211.979c45.1777 44.1123 77.4893 106.88 108.266 168.574
c-2.13867 3.11816 -4.44238 5.77441 -6.88672 7.91309c-6.53418 5.71191 -14.3613 7.78809 -22.2666 7.78809c-12.1836 0 -24.5557 -4.9209 -32.6807 -8.97949c-41.7305 -20.8184 -77.5137 -64.7812 -95.7148 -117.59
c-6.04883 -17.5586 -8.67383 -31.7402 -8.24316 -44.6289c0.438477 -13.2256 4.69336 -25.3545 10.8359 -30.8936c6.25293 -5.64941 14.7539 -3.63574 18.1152 -2.51562c10.4443 3.49414 20.7559 12.7002 28.5752 20.332z" />
    <glyph glyph-name="h" unicode="h" horiz-adv-x="392" 
d="M427.422 271.196c10.3115 -7.89746 12.2686 -22.6514 4.37891 -32.9385c-23.1055 -30.1885 -43.8525 -59.1318 -62.1553 -84.6748c-64.8594 -90.5039 -107.718 -150.286 -165.228 -139.567c-18.8984 3.52539 -34.0049 20.418 -39.4111 44.0879
c-3.99609 17.5117 -1.92773 34.7725 0.329102 47.8652c5.87598 34.1533 17.6367 65.4785 29.0059 95.7773c11.9561 31.8496 23.2461 61.9443 27.7432 94.2334c1.16699 8.39941 0.814453 14.0098 0.226562 17.1826c-0.360352 -0.125 -0.751953 -0.265625 -1.1748 -0.429688
c-18.8281 -7.36523 -36.0654 -25.8955 -51.9004 -44.8252c-62.0156 -74.1445 -146.228 -217.473 -180.201 -306.715c-3.57324 -9.38672 -12.4971 -15.1533 -21.9697 -15.1533c-2.78125 0 -5.60938 0.493164 -8.35938 1.54297
c-0.344727 0.132812 -0.634766 0.336914 -0.97168 0.485352c-12.6855 2.14648 -21.3281 14.0791 -19.3145 26.8115c38.4863 244.089 119.917 488.765 242.036 727.251c51.5166 100.604 122.3 220.544 166.913 220.567h0.015625c11.667 0 21.876 -6.2998 27.29 -16.8535
c28.2852 -55.0967 -96.7637 -297.791 -297.336 -577.083c-1.55176 -2.16211 -3.4082 -3.97949 -5.46875 -5.45215c-22.2441 -67.0693 -41.1113 -134.35 -56.7969 -201.677c37.4131 66.0898 80.9766 132.046 118.1 176.439c19.8467 23.7246 42.1611 47.2227 70.8223 58.4346
c25.2607 9.8877 41.291 0.916016 48.6094 -5.32031c14.4014 -12.2617 19.9482 -33.5967 16.0381 -61.6934c-5.20996 -37.4521 -17.958 -71.4258 -30.291 -104.278c-11.0869 -29.5547 -21.5625 -57.4639 -26.6865 -87.2373
c-1.50391 -8.76758 -2.96094 -20.042 -0.822266 -29.4209c0.979492 -4.30176 2.71875 -7.2793 3.78418 -8.57227c28.0498 -3.05566 67.3115 51.9004 116.807 120.967c18.5068 25.8164 39.4814 55.0811 63.0342 85.8574c7.88965 10.3115 22.6592 12.2627 32.9541 4.38867z
M222.312 680.708c-30.5967 -59.7588 -58.5908 -119.895 -83.9453 -180.304c116.854 178.289 169.78 294.305 187.127 350.217c-21.915 -27.2041 -56.6172 -78.9863 -103.182 -169.913z" />
    <glyph glyph-name="i" unicode="i" horiz-adv-x="173" 
d="M209.08 265.336c10.9062 -7.04395 14.0371 -21.5947 7.00098 -32.501c-32.2256 -49.9023 -142.466 -213.038 -207.835 -216.807c-0.932617 -0.0546875 -1.84961 -0.078125 -2.75879 -0.078125c-13.0928 0 -24.7598 5.46875 -33.0967 15.5996
c-61.3105 74.4814 98.5342 378 100.227 380.978c6.40137 11.3057 20.7471 15.2783 32.0371 8.85352c11.29 -6.40918 15.2471 -20.7549 8.8457 -32.0371c-17.0732 -30.1104 -52.7627 -105.72 -78.6582 -179.566c-32.915 -93.873 -32.6094 -135.579 -27.25 -146.596
c23.7559 4.68555 96.8652 83.4678 168.996 195.158c7.04395 10.9062 21.6016 14.0166 32.4922 6.99609zM234.142 704.495c11.126 -6.70703 14.707 -21.1484 8.01562 -32.2666c-17.9658 -29.8203 -34.8975 -61.2002 -50.3252 -93.2773
c-4.05078 -8.40723 -12.4502 -13.3203 -21.2021 -13.3203c-3.42383 0 -6.89453 0.751953 -10.1777 2.33496c-11.6982 5.62598 -16.6191 19.6748 -10.9932 31.373c16.0625 33.3857 33.6992 66.0742 52.417 97.1484c6.69922 11.1104 21.1475 14.6914 32.2656 8.00781z" />
    <glyph glyph-name="i" unicode="&#xef;" horiz-adv-x="173" 
d="M209.08 265.336c10.9062 -7.04395 14.0371 -21.5947 7.00098 -32.501c-32.2256 -49.9023 -142.466 -213.038 -207.835 -216.807c-0.932617 -0.0546875 -1.84961 -0.078125 -2.75879 -0.078125c-13.0928 0 -24.7598 5.46875 -33.0967 15.5996
c-61.3105 74.4814 98.5342 378 100.227 380.978c6.40137 11.3057 20.7471 15.2783 32.0371 8.85352c11.29 -6.40918 15.2471 -20.7549 8.8457 -32.0371c-17.0732 -30.1104 -52.7627 -105.72 -78.6582 -179.566c-32.915 -93.873 -32.6094 -135.579 -27.25 -146.596
c23.7559 4.68555 96.8652 83.4678 168.996 195.158c7.04395 10.9062 21.6016 14.0166 32.4922 6.99609zM234.142 704.495c11.126 -6.70703 14.707 -21.1484 8.01562 -32.2666c-17.9658 -29.8203 -34.8975 -61.2002 -50.3252 -93.2773
c-4.05078 -8.40723 -12.4502 -13.3203 -21.2021 -13.3203c-3.42383 0 -6.89453 0.751953 -10.1777 2.33496c-11.6982 5.62598 -16.6191 19.6748 -10.9932 31.373c16.0625 33.3857 33.6992 66.0742 52.417 97.1484c6.69922 11.1104 21.1475 14.6914 32.2656 8.00781z" />
    <glyph glyph-name="i" unicode="&#xee;" horiz-adv-x="173" 
d="M209.08 265.336c10.9062 -7.04395 14.0371 -21.5947 7.00098 -32.501c-32.2256 -49.9023 -142.466 -213.038 -207.835 -216.807c-0.932617 -0.0546875 -1.84961 -0.078125 -2.75879 -0.078125c-13.0928 0 -24.7598 5.46875 -33.0967 15.5996
c-61.3105 74.4814 98.5342 378 100.227 380.978c6.40137 11.3057 20.7471 15.2783 32.0371 8.85352c11.29 -6.40918 15.2471 -20.7549 8.8457 -32.0371c-17.0732 -30.1104 -52.7627 -105.72 -78.6582 -179.566c-32.915 -93.873 -32.6094 -135.579 -27.25 -146.596
c23.7559 4.68555 96.8652 83.4678 168.996 195.158c7.04395 10.9062 21.6016 14.0166 32.4922 6.99609zM234.142 704.495c11.126 -6.70703 14.707 -21.1484 8.01562 -32.2666c-17.9658 -29.8203 -34.8975 -61.2002 -50.3252 -93.2773
c-4.05078 -8.40723 -12.4502 -13.3203 -21.2021 -13.3203c-3.42383 0 -6.89453 0.751953 -10.1777 2.33496c-11.6982 5.62598 -16.6191 19.6748 -10.9932 31.373c16.0625 33.3857 33.6992 66.0742 52.417 97.1484c6.69922 11.1104 21.1475 14.6914 32.2656 8.00781z" />
    <glyph glyph-name="i" unicode="&#xed;" horiz-adv-x="173" 
d="M209.08 265.336c10.9062 -7.04395 14.0371 -21.5947 7.00098 -32.501c-32.2256 -49.9023 -142.466 -213.038 -207.835 -216.807c-0.932617 -0.0546875 -1.84961 -0.078125 -2.75879 -0.078125c-13.0928 0 -24.7598 5.46875 -33.0967 15.5996
c-61.3105 74.4814 98.5342 378 100.227 380.978c6.40137 11.3057 20.7471 15.2783 32.0371 8.85352c11.29 -6.40918 15.2471 -20.7549 8.8457 -32.0371c-17.0732 -30.1104 -52.7627 -105.72 -78.6582 -179.566c-32.915 -93.873 -32.6094 -135.579 -27.25 -146.596
c23.7559 4.68555 96.8652 83.4678 168.996 195.158c7.04395 10.9062 21.6016 14.0166 32.4922 6.99609zM234.142 704.495c11.126 -6.70703 14.707 -21.1484 8.01562 -32.2666c-17.9658 -29.8203 -34.8975 -61.2002 -50.3252 -93.2773
c-4.05078 -8.40723 -12.4502 -13.3203 -21.2021 -13.3203c-3.42383 0 -6.89453 0.751953 -10.1777 2.33496c-11.6982 5.62598 -16.6191 19.6748 -10.9932 31.373c16.0625 33.3857 33.6992 66.0742 52.417 97.1484c6.69922 11.1104 21.1475 14.6914 32.2656 8.00781z" />
    <glyph glyph-name="j" unicode="j" horiz-adv-x="177" 
d="M219.215 284.234c9.85645 -8.4541 10.9951 -23.2852 2.55664 -33.1416c-103.252 -120.371 -182.434 -218.507 -243.125 -298.354c-25.8721 -91.9219 -55.3398 -183.985 -101.434 -265.346c-30.7373 -54.2432 -61.4902 -88.3496 -96.7793 -107.342
c-4.16797 -2.24121 -8.72852 -3.32227 -13.2969 -3.32227c-9.02637 0 -18.0996 4.20703 -24.3438 11.9561c-38.7061 48.084 57.1963 205.97 193.011 385.402c4.87305 17.457 9.63672 34.9062 14.3691 52.2686l113.962 417.685
c3.41602 12.5205 16.3594 19.9092 28.8643 16.4854c12.5205 -3.42383 19.9014 -16.3438 16.4854 -28.8721l-98.4805 -360.919c56.7188 71.1201 116.885 143.133 175.068 210.962c8.4541 9.84863 23.2939 10.9844 33.1426 2.53809zM-163.702 -289.447
c21.6719 38.2588 39.5986 79.5029 55.2529 122.283c-73.917 -107.624 -99.0205 -164.162 -107.247 -192.267c17.5195 16.2969 34.6943 39.458 51.9941 69.9834zM116.867 567.507c-12.7949 2.20996 -21.374 14.3623 -19.1807 27.1416
c7.21582 41.8789 19.6113 81.8848 36.8408 118.93c5.48438 11.7686 19.4541 16.8535 31.2305 11.3926c11.7686 -5.46875 16.877 -19.4541 11.4004 -31.2227c-15.4824 -33.2686 -26.6318 -69.2949 -33.1348 -107.068c-1.9668 -11.4473 -11.9014 -19.5254 -23.1367 -19.5254
c-1.32422 0 -2.67188 0.117188 -4.01953 0.352539z" />
    <glyph glyph-name="k" unicode="k" horiz-adv-x="268" 
d="M201.479 366.417c10.9531 6.96582 25.4785 3.77832 32.4443 -7.18262c6.98926 -10.9453 3.76855 -25.4717 -7.16895 -32.4609c-46.4629 -29.6406 -91.6172 -63.8564 -134.225 -101.708c-15.1846 -13.4844 -25.3936 -24.8535 -28.543 -38.6982
c8.08594 -18.8438 65.5879 -82.0498 119.588 -69.6074c12.6699 2.93848 25.2764 -4.95898 28.1914 -17.6123s-4.97461 -25.2754 -17.6201 -28.1904c-8 -1.85645 -16.2188 -2.75781 -24.5635 -2.75781c-36.0654 0 -74.5986 16.9629 -108.933 48.6016
c-5.36719 4.94434 -24.9551 23.7568 -36.1123 43.917c-16.2188 -64.3584 -29.5381 -128.795 -39.6846 -193.169c-1.81738 -11.5801 -11.8154 -19.8457 -23.1846 -19.8457c-1.22266 0 -2.45312 0.09375 -3.69141 0.282227c-12.8262 2.0293 -21.5781 14.0645 -19.5566 26.8828
c38.4863 244.089 119.917 488.765 242.036 727.251c51.5166 100.604 122.3 220.544 166.913 220.567h0.015625c11.667 0 21.876 -6.2998 27.29 -16.8535c28.2852 -55.0967 -96.7637 -297.791 -297.336 -577.083c-1.55176 -2.16211 -3.40918 -3.97949 -5.46973 -5.45215
c-8.32129 -25.0957 -16.0859 -50.2305 -23.498 -75.373c4.19141 4.27051 8.53223 8.36816 12.9512 12.2939c44.457 39.4893 91.6094 75.2178 140.156 106.198zM222.312 680.702c-30.5967 -59.7588 -58.5908 -119.895 -83.9453 -180.304
c116.854 178.289 169.78 294.305 187.127 350.217c-21.915 -27.2041 -56.6172 -78.9863 -103.182 -169.913z" />
    <glyph glyph-name="l" unicode="l" horiz-adv-x="239" 
d="M19.0332 146.946c-11.04 -41.041 -19.0713 -75.7188 -22.3936 -111.588c-3.14941 -34.1299 3.47168 -46.9873 7.70312 -51.626c7.16895 -7.84277 20.5439 -2.80469 24.4697 -1.07324c18.6631 8.21875 35.8926 26.7803 51.7275 45.6006
c26.8828 31.9678 54.1963 69.1533 85.96 117.003c28.1514 42.4043 55.4883 86.6416 81.2578 131.482c6.46387 11.251 20.8418 15.1289 32.0928 8.67285c11.251 -6.47168 15.1377 -20.834 8.66602 -32.0928c-26.2715 -45.7178 -54.1416 -90.8252 -82.8496 -134.067
c-32.7744 -49.3691 -61.0986 -87.8945 -89.1484 -121.257c-19.4863 -23.1768 -41.3076 -46.2822 -68.7461 -58.3643c-10.9688 -4.83398 -22.0088 -7.20801 -32.5234 -7.20801c-17.668 0 -33.832 6.69141 -45.6162 19.6035c-17.041 18.6631 -23.5205 47.332 -19.7988 87.6357
c3.83105 41.5107 13.6953 81.9639 23.7949 119.486c12.1836 45.2637 25.707 90.0342 40.2725 134.271c0.360352 1.80176 0.94043 3.56445 1.73926 5.28027c51.25 154.619 115.052 302.625 177.937 441.809c117.073 259.108 145.186 260.628 160.292 261.442
c10.3975 0.619141 19.7529 -4.5127 25.0967 -13.5781c13.9932 -23.7559 -8.15723 -102.867 -65.8477 -235.141c-62.5869 -143.493 -152.863 -311.698 -254.384 -473.972c-14.3779 -43.6338 -27.7129 -87.7539 -39.7012 -132.32zM236.428 721.154
c-25.582 -56.625 -51.3125 -114.689 -76.252 -174.049c76.4316 142.545 125.425 256.061 151.979 329.812c-19.541 -36.3398 -44.6289 -86.9473 -75.7266 -155.764z" />
    <glyph glyph-name="m" unicode="m" horiz-adv-x="543" 
d="M585.932 266.55c7.31836 -10.7109 4.57324 -25.3428 -6.14551 -32.6455c-23.7637 -16.25 -42.8584 -36.3389 -63.0811 -57.6113c-19.7686 -20.7949 -40.2109 -42.3027 -65.1113 -59.4463c-12.2227 -8.40723 -24.0068 -10.374 -35.0469 -5.83008
c-9.58203 3.95703 -25.0879 15.7021 -21.6797 50.1064c3.62793 36.5586 9.8252 72.9219 18.4199 108.078c1.33984 5.49219 1.98242 9.51953 2.25684 12.4033c-8.64258 -2.99316 -18.3271 -9.29297 -29.4141 -19.1025c-21.9385 -19.4229 -40.9463 -43.9316 -61.0674 -69.8896
c-23.1611 -29.8828 -47.1133 -60.7764 -76.6758 -84.3135c-26.1533 -20.8262 -44.9893 -10.5781 -51.876 -5.1875c-9.15918 7.16895 -19.0547 22.0635 -14.2441 52.3232c4.97559 31.2705 14.6758 60.5742 24.0547 88.9141c11.5098 34.7646 22.377 67.6094 24.4531 102.397
c0.0390625 0.611328 0.0625 1.18359 0.0859375 1.70117c-0.250977 -0.117188 -0.501953 -0.226562 -0.760742 -0.351562c-25.8408 -12.5986 -48.665 -38.2588 -67.5947 -61.6934c-52.1113 -64.5615 -144.66 -203.745 -183.859 -292.588
c-1.03418 -4.46582 -2.12305 -8.90039 -3.13379 -13.374c-2.45996 -10.9297 -12.1602 -18.3418 -22.9023 -18.3418c-1.71582 0 -3.45508 0.188477 -5.20215 0.580078c-12.0742 2.72656 -19.7451 14.2988 -17.9668 26.3418
c-0.650391 4.12109 -0.297852 8.4541 1.41016 12.5986c0.956055 2.31934 1.97461 4.69336 3.00098 7.0752c46.5957 199.46 116.971 387.974 209.457 560.527c6.13477 11.4473 20.4023 15.7334 31.8184 9.62207c11.4395 -6.14258 15.749 -20.3867 9.61426 -31.8262
c-61.7568 -115.224 -113.414 -237.781 -154.557 -366.059c34.6787 53.6943 70.2344 103.361 95.7461 134.969c22.1816 27.4619 49.4482 57.7764 83.5703 74.4102c14.252 6.94238 29.46 8.33691 41.7373 3.81641c10.1543 -3.74512 18.2012 -11.4238 22.6436 -21.625
c4.29395 -9.84082 4.34082 -19.9795 3.82324 -28.5986c-2.43652 -40.9229 -14.8008 -78.2578 -26.749 -114.362c-8.50879 -25.7148 -16.5869 -50.1055 -21.21 -75.4053c20.6455 18.8438 38.9482 42.4512 58.168 67.2412c20.5596 26.5137 41.8242 53.9443 67.0615 76.2822
c20.1836 17.8721 38.2988 27.8857 57.0088 31.5215c18.1934 3.51758 29.7891 -2.5625 36.3232 -8.27441c21.4209 -18.7578 13.3115 -51.9863 10.6475 -62.9082c-7.03613 -28.8018 -12.3643 -58.4736 -15.874 -88.3809c13.5859 11.6982 26.3105 25.0889 39.5518 39.0195
c21.0137 22.1104 42.748 44.9736 70.626 64.0283c10.7344 7.3418 25.3545 4.57617 32.6729 -6.14258z" />
    <glyph glyph-name="n" unicode="n" horiz-adv-x="425" 
d="M464.208 285.433c10.5146 -7.59961 12.8779 -22.292 5.27832 -32.8145c-6.38574 -8.82227 -157.157 -215.944 -232.555 -207.49c-12.9121 1.46484 -23.7715 8.125 -30.5801 18.749c-20.0264 31.2783 -1.99023 90.4727 29.0918 184.455
c16.2578 49.1582 43.1562 130.487 35.5479 150.467c-9.34766 -0.274414 -53.6396 -12.5283 -163.363 -191.217c-69.835 -113.735 -129.249 -234.647 -138.322 -253.303c-0.211914 -1.01074 -0.447266 -2.00586 -0.65918 -3.0166
c-2.33496 -11.0713 -12.0977 -18.6709 -22.9805 -18.6709c-1.60645 0 -3.23633 0.164062 -4.87402 0.508789c-12.7012 2.67969 -20.834 15.1455 -18.1543 27.8467c0.438477 2.09961 0.923828 4.19141 1.37012 6.29102c0.046875 0.188477 0.078125 0.369141 0.125 0.557617
c37.3271 174.63 93.6309 342.255 167.454 498.339c5.55469 11.7295 19.5801 16.752 31.3018 11.1973c11.7373 -5.54688 16.7441 -19.5635 11.1973 -31.3008c-44.4648 -93.9902 -82.4023 -192.298 -113.57 -293.857c14.7852 26.1455 30.6279 53.2705 47.043 80.0039
c122.104 198.841 177.381 218.288 211.934 213.038c13.2725 -2.02148 23.9209 -9.01855 30.7998 -20.2305c20.458 -33.3623 1.8418 -94.4766 -30.2197 -191.429c-15.0195 -45.4121 -39.6377 -119.854 -35.0459 -141.463c24.8926 4.81836 105.657 76.4707 186.359 188.066
c7.61621 10.5225 22.3154 12.8887 32.8223 5.27246z" />
    <glyph glyph-name="o" unicode="o" horiz-adv-x="247" 
d="M301.426 294.138c5.08496 -11.9482 -0.478516 -25.7471 -12.4346 -30.832c-29.249 -12.4502 -59.3125 -25.2451 -90.7393 -33.793c-5.66504 -101.7 -61.4824 -196.396 -139.575 -232.021c-13.2725 -6.04883 -26.0908 -9.02637 -37.8594 -9.02637
c-18.8047 0 -34.9531 7.5918 -46.0713 22.416c-13.5781 18.1074 -17.2607 43.7285 -11.2588 78.3359c10.8203 62.3525 36.3789 117.081 63.9668 162.972c-13.0381 12.6455 -20.3643 28.6211 -20.4189 45.8428c-0.0390625 15.874 5.98633 31.4111 18.4365 47.5049
c31.2627 40.3672 74.8184 55.5752 110.946 38.7217c43.1875 -20.1445 56.4287 -73.7529 60.4639 -106.19c24.8135 7.67871 49.5566 18.209 73.7129 28.4961c11.9482 5.08496 25.7539 -0.477539 30.8311 -12.4258zM39.1826 40.2617
c58.873 26.8594 103.072 100.665 111.197 180.255c-29.4678 -2.78125 -56.9141 0.0546875 -81.9551 8.53223c-25.4404 -42.1689 -48.9229 -92.04 -58.6074 -147.865c-4.9209 -28.3633 0.140625 -38.8857 2.5459 -42.0898c5.74316 -7.63184 21.9854 -1.03418 26.8193 1.16797
zM95.2285 270.237c16.9785 -3.97266 35.5498 -4.78125 55.5293 -2.39941c-3.54102 36.2217 -16.9941 65.792 -34.208 73.8154c-17.4805 8.16406 -40.2021 -7.19238 -53.9062 -24.8994c-5.79785 -7.49023 -8.61035 -13.5703 -8.59473 -18.585
c0.0078125 -1.36328 0.227539 -2.67188 0.626953 -3.91797c3.37695 4.90527 6.72266 9.66895 10.0137 14.2998c7.5293 10.585 22.1963 13.0684 32.7812 5.52344c10.5771 -7.52148 13.0527 -22.1963 5.53125 -32.7812c-2.5625 -3.59668 -5.15625 -7.2793 -7.77344 -11.0557z
" />
    <glyph glyph-name="o" unicode="&#xf6;" horiz-adv-x="247" 
d="M301.426 294.138c5.08496 -11.9482 -0.478516 -25.7471 -12.4346 -30.832c-29.249 -12.4502 -59.3125 -25.2451 -90.7393 -33.793c-5.66504 -101.7 -61.4824 -196.396 -139.575 -232.021c-13.2725 -6.04883 -26.0908 -9.02637 -37.8594 -9.02637
c-18.8047 0 -34.9531 7.5918 -46.0713 22.416c-13.5781 18.1074 -17.2607 43.7285 -11.2588 78.3359c10.8203 62.3525 36.3789 117.081 63.9668 162.972c-13.0381 12.6455 -20.3643 28.6211 -20.4189 45.8428c-0.0390625 15.874 5.98633 31.4111 18.4365 47.5049
c31.2627 40.3672 74.8184 55.5752 110.946 38.7217c43.1875 -20.1445 56.4287 -73.7529 60.4639 -106.19c24.8135 7.67871 49.5566 18.209 73.7129 28.4961c11.9482 5.08496 25.7539 -0.477539 30.8311 -12.4258zM39.1826 40.2617
c58.873 26.8594 103.072 100.665 111.197 180.255c-29.4678 -2.78125 -56.9141 0.0546875 -81.9551 8.53223c-25.4404 -42.1689 -48.9229 -92.04 -58.6074 -147.865c-4.9209 -28.3633 0.140625 -38.8857 2.5459 -42.0898c5.74316 -7.63184 21.9854 -1.03418 26.8193 1.16797
zM95.2285 270.237c16.9785 -3.97266 35.5498 -4.78125 55.5293 -2.39941c-3.54102 36.2217 -16.9941 65.792 -34.208 73.8154c-17.4805 8.16406 -40.2021 -7.19238 -53.9062 -24.8994c-5.79785 -7.49023 -8.61035 -13.5703 -8.59473 -18.585
c0.0078125 -1.36328 0.227539 -2.67188 0.626953 -3.91797c3.37695 4.90527 6.72266 9.66895 10.0137 14.2998c7.5293 10.585 22.1963 13.0684 32.7812 5.52344c10.5771 -7.52148 13.0527 -22.1963 5.53125 -32.7812c-2.5625 -3.59668 -5.15625 -7.2793 -7.77344 -11.0557z
" />
    <glyph glyph-name="o" unicode="&#xf5;" horiz-adv-x="247" 
d="M301.426 294.138c5.08496 -11.9482 -0.478516 -25.7471 -12.4346 -30.832c-29.249 -12.4502 -59.3125 -25.2451 -90.7393 -33.793c-5.66504 -101.7 -61.4824 -196.396 -139.575 -232.021c-13.2725 -6.04883 -26.0908 -9.02637 -37.8594 -9.02637
c-18.8047 0 -34.9531 7.5918 -46.0713 22.416c-13.5781 18.1074 -17.2607 43.7285 -11.2588 78.3359c10.8203 62.3525 36.3789 117.081 63.9668 162.972c-13.0381 12.6455 -20.3643 28.6211 -20.4189 45.8428c-0.0390625 15.874 5.98633 31.4111 18.4365 47.5049
c31.2627 40.3672 74.8184 55.5752 110.946 38.7217c43.1875 -20.1445 56.4287 -73.7529 60.4639 -106.19c24.8135 7.67871 49.5566 18.209 73.7129 28.4961c11.9482 5.08496 25.7539 -0.477539 30.8311 -12.4258zM39.1826 40.2617
c58.873 26.8594 103.072 100.665 111.197 180.255c-29.4678 -2.78125 -56.9141 0.0546875 -81.9551 8.53223c-25.4404 -42.1689 -48.9229 -92.04 -58.6074 -147.865c-4.9209 -28.3633 0.140625 -38.8857 2.5459 -42.0898c5.74316 -7.63184 21.9854 -1.03418 26.8193 1.16797
zM95.2285 270.237c16.9785 -3.97266 35.5498 -4.78125 55.5293 -2.39941c-3.54102 36.2217 -16.9941 65.792 -34.208 73.8154c-17.4805 8.16406 -40.2021 -7.19238 -53.9062 -24.8994c-5.79785 -7.49023 -8.61035 -13.5703 -8.59473 -18.585
c0.0078125 -1.36328 0.227539 -2.67188 0.626953 -3.91797c3.37695 4.90527 6.72266 9.66895 10.0137 14.2998c7.5293 10.585 22.1963 13.0684 32.7812 5.52344c10.5771 -7.52148 13.0527 -22.1963 5.53125 -32.7812c-2.5625 -3.59668 -5.15625 -7.2793 -7.77344 -11.0557z
" />
    <glyph glyph-name="o" unicode="&#xf4;" horiz-adv-x="247" 
d="M301.426 294.138c5.08496 -11.9482 -0.478516 -25.7471 -12.4346 -30.832c-29.249 -12.4502 -59.3125 -25.2451 -90.7393 -33.793c-5.66504 -101.7 -61.4824 -196.396 -139.575 -232.021c-13.2725 -6.04883 -26.0908 -9.02637 -37.8594 -9.02637
c-18.8047 0 -34.9531 7.5918 -46.0713 22.416c-13.5781 18.1074 -17.2607 43.7285 -11.2588 78.3359c10.8203 62.3525 36.3789 117.081 63.9668 162.972c-13.0381 12.6455 -20.3643 28.6211 -20.4189 45.8428c-0.0390625 15.874 5.98633 31.4111 18.4365 47.5049
c31.2627 40.3672 74.8184 55.5752 110.946 38.7217c43.1875 -20.1445 56.4287 -73.7529 60.4639 -106.19c24.8135 7.67871 49.5566 18.209 73.7129 28.4961c11.9482 5.08496 25.7539 -0.477539 30.8311 -12.4258zM39.1826 40.2617
c58.873 26.8594 103.072 100.665 111.197 180.255c-29.4678 -2.78125 -56.9141 0.0546875 -81.9551 8.53223c-25.4404 -42.1689 -48.9229 -92.04 -58.6074 -147.865c-4.9209 -28.3633 0.140625 -38.8857 2.5459 -42.0898c5.74316 -7.63184 21.9854 -1.03418 26.8193 1.16797
zM95.2285 270.237c16.9785 -3.97266 35.5498 -4.78125 55.5293 -2.39941c-3.54102 36.2217 -16.9941 65.792 -34.208 73.8154c-17.4805 8.16406 -40.2021 -7.19238 -53.9062 -24.8994c-5.79785 -7.49023 -8.61035 -13.5703 -8.59473 -18.585
c0.0078125 -1.36328 0.227539 -2.67188 0.626953 -3.91797c3.37695 4.90527 6.72266 9.66895 10.0137 14.2998c7.5293 10.585 22.1963 13.0684 32.7812 5.52344c10.5771 -7.52148 13.0527 -22.1963 5.53125 -32.7812c-2.5625 -3.59668 -5.15625 -7.2793 -7.77344 -11.0557z
" />
    <glyph glyph-name="o" unicode="&#xf3;" horiz-adv-x="247" 
d="M301.426 294.138c5.08496 -11.9482 -0.478516 -25.7471 -12.4346 -30.832c-29.249 -12.4502 -59.3125 -25.2451 -90.7393 -33.793c-5.66504 -101.7 -61.4824 -196.396 -139.575 -232.021c-13.2725 -6.04883 -26.0908 -9.02637 -37.8594 -9.02637
c-18.8047 0 -34.9531 7.5918 -46.0713 22.416c-13.5781 18.1074 -17.2607 43.7285 -11.2588 78.3359c10.8203 62.3525 36.3789 117.081 63.9668 162.972c-13.0381 12.6455 -20.3643 28.6211 -20.4189 45.8428c-0.0390625 15.874 5.98633 31.4111 18.4365 47.5049
c31.2627 40.3672 74.8184 55.5752 110.946 38.7217c43.1875 -20.1445 56.4287 -73.7529 60.4639 -106.19c24.8135 7.67871 49.5566 18.209 73.7129 28.4961c11.9482 5.08496 25.7539 -0.477539 30.8311 -12.4258zM39.1826 40.2617
c58.873 26.8594 103.072 100.665 111.197 180.255c-29.4678 -2.78125 -56.9141 0.0546875 -81.9551 8.53223c-25.4404 -42.1689 -48.9229 -92.04 -58.6074 -147.865c-4.9209 -28.3633 0.140625 -38.8857 2.5459 -42.0898c5.74316 -7.63184 21.9854 -1.03418 26.8193 1.16797
zM95.2285 270.237c16.9785 -3.97266 35.5498 -4.78125 55.5293 -2.39941c-3.54102 36.2217 -16.9941 65.792 -34.208 73.8154c-17.4805 8.16406 -40.2021 -7.19238 -53.9062 -24.8994c-5.79785 -7.49023 -8.61035 -13.5703 -8.59473 -18.585
c0.0078125 -1.36328 0.227539 -2.67188 0.626953 -3.91797c3.37695 4.90527 6.72266 9.66895 10.0137 14.2998c7.5293 10.585 22.1963 13.0684 32.7812 5.52344c10.5771 -7.52148 13.0527 -22.1963 5.53125 -32.7812c-2.5625 -3.59668 -5.15625 -7.2793 -7.77344 -11.0557z
" />
    <glyph glyph-name="p" unicode="p" horiz-adv-x="423" 
d="M473.206 269.104c3.24414 -12.5674 -4.31738 -25.3867 -16.8691 -28.6309c-32.3906 -8.36035 -65.5801 -11.6904 -98.6367 -9.86523c-11.8936 0.650391 -23.6465 1.95898 -35.0469 3.27539c-4.88867 -11.0791 -10.0986 -21.9463 -15.6299 -32.5859
c-18.9453 -36.4414 -37.7656 -62.2344 -59.2344 -81.1562c-33.2998 -29.374 -73.0322 -31.6074 -96.6396 -5.4541c-24.2812 26.8906 -20.2148 72.8438 -4.06641 102.406c20.8418 38.165 60.0176 62.54 107.483 66.8887c12.7871 1.18359 25.3623 0.987305 37.7188 0.172852
c8.61035 23.3955 15.7324 47.6533 21.2871 72.624c7.21582 32.4297 9.85645 58.4502 8.3125 81.8691c-0.84668 12.834 -3.51855 19.415 -5.04688 21.8047c-1.78613 -0.556641 -5.63281 -2.22559 -11.877 -7.24805c-29.5859 -23.7949 -54.3057 -58.4658 -72.5381 -86.0225
c-137.304 -207.467 -282.419 -541.519 -399.021 -809.936l-16.2734 -37.4443c-0.0390625 -0.0859375 -0.09375 -0.164062 -0.132812 -0.25c-0.219727 -0.493164 -0.494141 -0.947266 -0.745117 -1.41699c-0.336914 -0.634766 -0.673828 -1.26953 -1.05762 -1.85742
c-0.282227 -0.430664 -0.603516 -0.830078 -0.916992 -1.24512c-0.430664 -0.572266 -0.869141 -1.14453 -1.35449 -1.66992c-0.329102 -0.360352 -0.673828 -0.697266 -1.02637 -1.03418c-0.525391 -0.517578 -1.06641 -1.00293 -1.63867 -1.45703
c-0.368164 -0.305664 -0.751953 -0.587891 -1.14355 -0.862305c-0.595703 -0.422852 -1.20703 -0.806641 -1.83398 -1.16699c-0.415039 -0.243164 -0.837891 -0.486328 -1.26855 -0.698242c-0.650391 -0.321289 -1.30859 -0.595703 -1.98242 -0.854492
c-0.454102 -0.180664 -0.900391 -0.361328 -1.3623 -0.509766c-0.720703 -0.227539 -1.45703 -0.391602 -2.19336 -0.547852c-0.430664 -0.09375 -0.853516 -0.210938 -1.2998 -0.28125c-1.12012 -0.172852 -2.24805 -0.274414 -3.3916 -0.282227
c-0.0625 0 -0.125 -0.015625 -0.1875 -0.015625h-0.015625h-0.015625c-0.015625 0 -0.03125 0.0078125 -0.046875 0.0078125c-1.34766 0.0078125 -2.70312 0.171875 -4.06641 0.415039c-0.375977 0.0703125 -0.744141 0.140625 -1.12012 0.226562
c-0.313477 0.0703125 -0.619141 0.101562 -0.924805 0.1875c-0.572266 0.148438 -1.07324 0.422852 -1.62207 0.619141c-0.525391 0.180664 -1.06641 0.274414 -1.58398 0.501953c-0.211914 0.09375 -0.384766 0.234375 -0.588867 0.328125
c-0.759766 0.360352 -1.46484 0.791016 -2.17773 1.22168c-0.634766 0.383789 -1.26953 0.751953 -1.85742 1.18262c-0.626953 0.461914 -1.18359 0.987305 -1.75586 1.5127c-0.564453 0.517578 -1.13672 1.01074 -1.64648 1.5752
c-0.493164 0.556641 -0.916016 1.15234 -1.35449 1.74023c-0.461914 0.619141 -0.931641 1.22266 -1.33105 1.88086c-0.391602 0.642578 -0.697266 1.32422 -1.01855 1.99805s-0.658203 1.33203 -0.916992 2.03711c-0.266602 0.720703 -0.438477 1.46484 -0.634766 2.2168
c-0.180664 0.712891 -0.384766 1.41016 -0.501953 2.13867c-0.117188 0.759766 -0.148438 1.51953 -0.195312 2.28711s-0.109375 1.51953 -0.078125 2.29492c0.0234375 0.736328 0.140625 1.46484 0.242188 2.20898c0.109375 0.814453 0.210938 1.62109 0.407227 2.43555
c0.0546875 0.227539 0.046875 0.447266 0.109375 0.674805c86.2959 317.34 185.246 653.014 323.787 957.816c5.36719 11.8154 19.3213 17.0254 31.1211 11.6738c11.8232 -5.375 17.0488 -19.3135 11.6738 -31.1289c-89.8613 -197.712 -162.971 -409.034 -226.874 -619.973
c89.2734 197.642 186.406 397.038 280.608 539.387c20.1133 30.4004 47.6387 68.8633 82.2705 96.7168c32.3672 26.0439 55.5439 17.9189 66.4814 10.7891c15.8975 -10.3896 24.9238 -30.2051 26.8203 -58.8896c1.84863 -28.0107 -1.12109 -58.2471 -9.33984 -95.1738
c-5.13184 -23.0273 -11.4863 -45.5225 -19.0312 -67.3594c6.69922 -0.705078 13.2725 -1.29297 19.8379 -1.66113c28.2227 -1.51172 56.6016 1.30859 84.3223 8.4541c12.5752 3.23633 25.3779 -4.31641 28.6299 -16.8916zM265.299 222.985
c2.53906 4.88867 5.00684 9.83203 7.4043 14.8154c-4.66211 -0.0234375 -9.27734 -0.211914 -13.8613 -0.634766c-18.5771 -1.7002 -52.4326 -9.49609 -70.5166 -42.6074c-8.90039 -16.3047 -10.0127 -39.8184 -2.28711 -48.3818
c6.52637 -7.22363 22.2676 1.82617 30.6514 9.22266c16.9785 14.9648 32.4297 36.4414 48.6094 67.5859z" />
    <glyph glyph-name="q" unicode="q" horiz-adv-x="389" 
d="M428.44 277.802c9.86426 -8.43066 11.0312 -23.2666 2.56934 -33.1309c-76.6123 -89.6338 -184.142 -177.207 -247.207 -225.558c4.89648 -3.7998 8.28906 -9.48047 8.95508 -16.1484c1.29297 -12.9121 -8.13281 -24.4375 -21.0449 -25.7305l-20.4023 -2.04492
c34.5918 -148.124 -87.9502 -328.67 -121.391 -345.469c-3.96484 -1.99023 -8.13281 -2.94629 -12.1914 -2.94629c-8.65039 0 -16.7832 4.34082 -21.3428 12.168c-7.77246 13.3438 -8.54785 28.9512 -8.46191 39.5361c0.243164 28.4258 6.47168 55.6611 12.2852 78.9629
c13.3193 53.3887 30.2979 108.854 55.0254 179.832c3.42383 9.81738 7.0127 19.5645 10.5068 29.3506l-23.8193 -2.38184c-6.76953 -0.673828 -13.1631 -1.31641 -17.6055 -3.41602c-3.24414 -1.53613 -6.66016 -2.26465 -10.0293 -2.26465
c-8.80664 0 -17.2529 4.97559 -21.2646 13.4688c-5.54688 11.7373 -0.524414 25.7461 11.2129 31.293c11.7764 5.57031 23.5449 6.74512 33.0098 7.69336l46.29 4.63086c10.4912 28.3008 21.2646 56.46 32.2256 84.502
c-11.377 -18.2168 -24.2422 -35.7363 -39.7168 -50.1611c-19.6426 -18.3027 -37.0527 -23.5527 -50.5527 -23.5527c-4.85742 0 -9.21387 0.681641 -12.9824 1.67676c-37.0684 9.79395 -52.1436 56.9619 -50.4512 96.6475c1.14355 26.9688 7.33301 54.627 19.4697 87.0488
c26.5137 70.7988 68.2676 130.949 120.739 173.94c45.7734 37.499 90.6377 46.541 126.335 25.457c1.91211 -1.13574 3.79297 -2.35059 5.62598 -3.65918c11.001 17.543 18.5928 28.2617 24.2031 35.0469c2.21777 4.10547 5.48535 7.30957 9.37207 9.4248
c2.50684 1.84082 4.45801 2.60059 6.35449 3.32129c12.1523 4.63867 25.7227 -1.44922 30.3457 -13.5781c3.65137 -9.55078 0.611328 -19.9717 -6.76172 -26.248c-51.124 -119.11 -103.416 -241.182 -151.085 -365.525c60.0176 45.6865 172.107 135.673 248.649 225.221
c8.43066 9.87207 23.2627 11.0391 33.1348 2.59277zM37.9834 -290.165c34.9053 53.209 83.4121 150.959 70.8994 238.156c-3.11035 -8.72852 -6.18164 -17.4492 -9.22949 -26.1934c-24.25 -69.584 -40.8447 -123.787 -53.8115 -175.75
c-2.82031 -11.2979 -5.74316 -23.5908 -7.8584 -36.2129zM100.562 168.692c50.1211 93.7236 84.8311 156.304 109.292 198.284c-1.66113 1.44922 -3.37695 2.70312 -5.13965 3.74512c-5.40625 3.18848 -11.251 4.52832 -17.2686 4.52832
c-20.207 0 -42.2549 -15.1221 -55.3711 -25.8643c-45.4121 -37.209 -83.2402 -91.9219 -106.511 -154.062c-10.3428 -27.6426 -15.6006 -50.7012 -16.5332 -72.5771c-1.13574 -26.8115 8.57227 -47.3633 15.499 -49.1885c3.0791 -0.822266 10.2637 2.22559 19.4775 10.8125
c22.8633 21.3115 39.9912 53.3418 56.5547 84.3223z" />
    <glyph glyph-name="r" unicode="r" horiz-adv-x="381" 
d="M412.685 296.237c12.9512 -0.84668 22.7812 -12.0322 21.9268 -24.9834s-12.0352 -22.8311 -25.002 -21.9062c-21.8447 1.37891 -45.0918 -11.6982 -69.6787 -25.5898c-11.0947 -6.26855 -22.5576 -12.7559 -34.3496 -18.1074
c-12.8809 -5.83691 -52.1035 -23.6387 -79.7695 -2.86719c-30.4707 22.8711 -23.3486 72.3027 -16.4697 120.113c2.6875 18.71 7.12988 49.5254 4.08984 58.9824c-0.666016 0.015625 -1.67676 0.015625 -2.9541 -0.219727
c-20.4023 -3.91797 -39.8965 -26.7344 -56.2803 -48.54c-53.2793 -70.9316 -151.986 -280.546 -189.353 -381.635c-1.1123 -4.4502 -2.32715 -8.85352 -3.41602 -13.3037c-2.63281 -10.7266 -12.2383 -17.9189 -22.8154 -17.9189
c-1.84863 0 -3.72949 0.219727 -5.61035 0.681641c-11.4082 2.79688 -18.7266 13.4844 -17.7471 24.8301c-0.329102 3.30664 -0.015625 6.71484 1.15918 10.0527c1.09668 3.12598 2.27148 6.37793 3.50195 9.73926c46.4629 185.607 108.415 365.55 184.518 535.001
c5.32031 11.8389 19.2354 17.1436 31.0742 11.8076c11.8467 -5.32031 17.1357 -19.2275 11.8154 -31.0742c-29.8359 -66.4424 -57.4316 -134.554 -82.8018 -203.974c19.126 34.5996 37.1465 64.1377 52.0879 84.0312c22.8633 30.4316 48.9854 59.5625 85.0039 66.4727
c22.832 4.41113 43.1328 -4.3877 52.9424 -22.8867c11.0791 -20.8809 6.55078 -52.3311 1.30859 -88.7412c-2.9541 -20.5049 -9.86426 -68.4951 -1.81738 -75.8447c0.03125 0 7.62305 -3.00098 32.0996 8.10156c9.89551 4.48926 19.9717 10.1777 30.6357 16.2109
c28.1357 15.9131 60.0088 33.9727 95.9014 31.5674z" />
    <glyph glyph-name="s" unicode="s" horiz-adv-x="303" 
d="M353.467 272.137c3.17285 -12.583 -4.45312 -25.3623 -17.0361 -28.5273c-106.824 -26.9375 -192.486 -89.5791 -246.541 -152.762c2.07617 -4.12891 4.19922 -8.29688 6.36133 -12.5361c8.96387 -17.5586 18.2246 -35.7285 25.6289 -55.5205
c4.10547 -10.9932 8.29688 -24.2422 8.1875 -39.168c-0.188477 -26.0361 -14.0254 -51.8682 -37.9541 -70.8838c-16.7119 -13.2725 -34.2627 -20.0186 -50.6143 -20.0186c-11.5645 0 -22.5254 3.37695 -32.1709 10.209c-27.7754 19.6582 -33.291 60.2441 -26.6621 89.6416
c7.4043 32.8369 25.4482 69.1055 52.1113 104.936c-29.6953 68.7461 -38.1807 147.787 -23.2783 217.026c13.0693 60.7305 80.1064 180.404 203.729 163.034c12.8496 -1.81738 21.7979 -13.7031 19.9883 -26.5605c-1.81738 -12.8652 -13.7031 -21.75 -26.5605 -19.9951
c-98.9502 14.0801 -145.076 -97.9238 -151.203 -126.373c-11.3135 -52.5664 -6.94141 -111.895 11.8242 -166.169c62.0391 65.6738 151.775 124.516 255.646 150.717c12.5986 3.1416 25.3701 -4.4668 28.543 -17.0498zM62.8906 -50.4521
c6.01758 4.78711 20.0518 17.7227 20.1768 34.4033c0.046875 7.2793 -2.60938 15.3887 -5.21875 22.3623c-5.42969 14.542 -12.1367 28.293 -19.3369 42.498c-15.3408 -23.9912 -25.5342 -46.8779 -29.9766 -66.5908c-3.93359 -17.4258 0.962891 -35.9795 7.95996 -40.9395
c5.8291 -4.12891 17.4561 1.19141 26.3955 8.2666z" />
    </font>
</defs>
</svg>
